The Green Mile (1999)

R | 3h 9min | Crime, Drama, Fantasy | 10 December 1999 (USA)

The lives of guards on Death Row are affected by one of their charges: a black man accused of child murder and rape, yet who has a mysterious gift.

Watch trailer

Media information

General
Format : Matroska
Format version : Version 4 / Version 2
File size : 1.14 GiB
Duration : 3 h 8 min
Overall bit rate : 867 kb/s
Movie name : The.Green.Mile.720p.BluRay.2CH.x265.HEVC
Encoded date : UTC 2018-07-30 11:51:03
Writing application : mkvmerge v25.0.0 (‘Prog Noir’) 32-bit
Writing library : libebml v1.3.6 + libmatroska v1.4.9

Video
ID : 1
Format : HEVC
Format/Info : High Efficiency Video Coding
Format profile : [email protected]@Main
Codec ID : V_MPEGH/ISO/HEVC
Duration : 3 h 8 min
Bit rate : 737 kb/s
Width : 1 280 pixels
Height : 720 pixels
Display aspect ratio : 16:9
Frame rate mode : Constant
Frame rate : 23.976 (24000/1001) FPS
Color space : YUV
Chroma subsampling : 4:2:0
Bit depth : 8 bits
Bits/(Pixel*Frame) : 0.033
Stream size : 994 MiB (85%)
Default : Yes
Forced : No
Color range : Limited
Color primaries : BT.709
Transfer characteristics : BT.709
Matrix coefficients : BT.709

Audio
ID : 2
Format : AAC
Format/Info : Advanced Audio Codec
Format profile : LC
Codec ID : A_AAC-2
Duration : 3 h 8 min
Bit rate : 128 kb/s
Channel(s) : 2 channels
Channel positions : Front: L R
Sampling rate : 48.0 kHz
Frame rate : 46.875 FPS (1024 SPF)
Compression mode : Lossy
Delay relative to video : -1 ms
Stream size : 173 MiB (15%)
Title : Stereo
Language : English
Default : Yes
Forced : No

Text
ID : 3
Format : UTF-8
Codec ID : S_TEXT/UTF8
Codec ID/Info : UTF-8 Plain Text
Duration : 3 h 7 min
Bit rate : 43 b/s
Count of elements : 1988
Stream size : 59.2 KiB (0%)
Default : Yes
Forced : No

[collapse]
Download Link(s)

Part01 Part02

[RE-UP] – Direct download files get automatically deleted after a month or so. Posted on : 07/30/2018

[collapse]
Magnet Link

Magnet

Source : The Green Mile 1999 (1080p Bluray x265 HEVC 10bit AAC 5.1 Tigole)-5.6 GB

[collapse]

You may also like...

error: nah :p~