The Hobbit: An Unexpected Journey (2012)

PG-13 | 2h 49min | Adventure, Fantasy | 14 December 2012 (USA)

A reluctant Hobbit, Bilbo Baggins, sets out to the Lonely Mountain with a spirited group of dwarves to reclaim their mountain home, and the gold within it from the dragon Smaug.

Watch trailer

Media information

General
Format : Matroska
Format version : Version 4
File size : 3.82 GiB
Duration : 3 h 2 min
Overall bit rate : 2 999 kb/s
Movie name : The.Hobbit.An.Unexpected.Journey.2012.EXTENDED.1080p.10bit.BluRay.8CH.x265.HEVC

Video
ID : 1
Format : HEVC
Format/Info : High Efficiency Video Coding
Format profile : Main [email protected]@Main
Codec ID : V_MPEGH/ISO/HEVC
Duration : 3 h 2 min
Bit rate : 2 688 kb/s
Width : 1 920 pixels
Height : 800 pixels
Display aspect ratio : 2.40:1
Frame rate mode : Constant
Frame rate : 23.976 (24000/1001) FPS
Color space : YUV
Chroma subsampling : 4:2:0
Bit depth : 10 bits
Bits/(Pixel*Frame) : 0.073
Stream size : 3.43 GiB (90%)
Default : Yes
Forced : No

Audio
ID : 2
Format : AAC LC SBR
Commercial name : HE-AAC
Format settings : Explicit
Codec ID : A_AAC-2
Duration : 3 h 2 min
Bit rate : 310 kb/s
Channel(s) : 8 channels
Channel layout : C L R Ls Rs Lw Rw LFE
Sampling rate : 48.0 kHz
Frame rate : 23.438 FPS (2048 SPF)
Compression mode : Lossy
Delay relative to video : 31 ms
Stream size : 404 MiB (10%)
Language : English
Default : Yes
Forced : No

Text #1
ID : 3
Format : UTF-8
Codec ID : S_TEXT/UTF8
Codec ID/Info : UTF-8 Plain Text
Duration : 2 h 55 min
Bit rate : 49 b/s
Count of elements : 2237
Stream size : 63.3 KiB (0%)
Language : English
Default : No
Forced : No

Text #2
ID : 4
Format : UTF-8
Codec ID : S_TEXT/UTF8
Codec ID/Info : UTF-8 Plain Text
Duration : 2 h 36 min
Bit rate : 2 b/s
Count of elements : 51
Stream size : 2.97 KiB (0%)
Language : English
Default : No
Forced : Yes

Text #3
ID : 5
Format : UTF-8
Codec ID : S_TEXT/UTF8
Codec ID/Info : UTF-8 Plain Text
Duration : 2 h 55 min
Bit rate : 52 b/s
Count of elements : 2497
Stream size : 67.6 KiB (0%)
Title : SDH
Language : English
Default : Yes
Forced : No

[collapse]
Download Link(s)

Part01 Part02

Direct download files get automatically deleted after a month or so. Posted on : 09/10/2020

[collapse]
Magnet Link

Magnet

The.Hobbit.An.Unexpected.Journey.2012.EXTENDED.1080p.BluRay.AVC.DTS-HD.MA.7.1-FGT- 37.31 GB

[collapse]

Media information

General
Format : Matroska
Format version : Version 4
File size : 1.90 GiB
Duration : 3 h 2 min
Overall bit rate : 1 491 kb/s
Movie name : The.Hobbit.An.Unexpected.Journey.2012.720p.10bit.BluRay.6CH.x265.HEVC

Video
ID : 1
Format : HEVC
Format/Info : High Efficiency Video Coding
Format profile : Main [email protected]@Main
Codec ID : V_MPEGH/ISO/HEVC
Duration : 3 h 2 min
Bit rate : 1 261 kb/s
Width : 1 280 pixels
Height : 536 pixels
Display aspect ratio : 2.40:1
Frame rate mode : Constant
Frame rate : 23.976 (24000/1001) FPS
Color space : YUV
Chroma subsampling : 4:2:0
Bit depth : 10 bits
Bits/(Pixel*Frame) : 0.077
Stream size : 1.61 GiB (85%)
Default : Yes
Forced : No

Audio
ID : 2
Format : AAC LC SBR
Commercial name : HE-AAC
Format settings : Explicit
Codec ID : A_AAC-2
Duration : 3 h 2 min
Bit rate : 229 kb/s
Channel(s) : 6 channels
Channel layout : C L R Ls Rs LFE
Sampling rate : 48.0 kHz
Frame rate : 23.438 FPS (2048 SPF)
Compression mode : Lossy
Delay relative to video : 31 ms
Stream size : 299 MiB (15%)
Language : English
Default : Yes
Forced : No

Text #1
ID : 3
Format : UTF-8
Codec ID : S_TEXT/UTF8
Codec ID/Info : UTF-8 Plain Text
Duration : 2 h 55 min
Bit rate : 49 b/s
Count of elements : 2237
Stream size : 63.3 KiB (0%)
Language : English
Default : No
Forced : No

Text #2
ID : 4
Format : UTF-8
Codec ID : S_TEXT/UTF8
Codec ID/Info : UTF-8 Plain Text
Duration : 2 h 36 min
Bit rate : 2 b/s
Count of elements : 51
Stream size : 2.97 KiB (0%)
Language : English
Default : No
Forced : Yes

Text #3
ID : 5
Format : UTF-8
Codec ID : S_TEXT/UTF8
Codec ID/Info : UTF-8 Plain Text
Duration : 2 h 55 min
Bit rate : 52 b/s
Count of elements : 2497
Stream size : 67.6 KiB (0%)
Title : SDH
Language : English
Default : Yes
Forced : No

[collapse]
Download Link(s)

Download

Direct download files get automatically deleted after a month or so. Posted on : 09/09/2020

[collapse]
Magnet Link

Magnet

The.Hobbit.An.Unexpected.Journey.2012.EXTENDED.1080p.BluRay.AVC.DTS-HD.MA.7.1-FGT- 37.31 GB

[collapse]

You may also like...

error: nah :p~