The Hurt Locker (2008)


R | 2h 11min | Drama, History, Thriller | 31 July 2009 (USA)

During the Iraq War, a Sergeant recently assigned to an army bomb squad is put at odds with his squad mates due to his maverick way of handling his work.

Watch trailer

Media information

General
Format : Matroska
Format version : Version 4 / Version 2
File size : 1.03 GiB
Duration : 2 h 10 min
Overall bit rate : 1 132 kb/s
Movie name : The.hurt.locker.2008.720p.BluRay.2CH.x265.HEVC
Encoded date : UTC 2018-08-03 15:40:03
Writing application : mkvmerge v25.0.0 (‘Prog Noir’) 32-bit
Writing library : libebml v1.3.6 + libmatroska v1.4.9

Video
ID : 1
Format : HEVC
Format/Info : High Efficiency Video Coding
Format profile : [email protected]@Main
Codec ID : V_MPEGH/ISO/HEVC
Duration : 2 h 10 min
Bit rate : 1 009 kb/s
Width : 1 280 pixels
Height : 720 pixels
Display aspect ratio : 16:9
Frame rate mode : Constant
Frame rate : 23.976 (24000/1001) FPS
Color space : YUV
Chroma subsampling : 4:2:0
Bit depth : 8 bits
Bits/(Pixel*Frame) : 0.046
Stream size : 943 MiB (89%)
Default : Yes
Forced : No
Color range : Limited
Color primaries : BT.709
Transfer characteristics : BT.709
Matrix coefficients : BT.709

Audio
ID : 2
Format : Opus
Codec ID : A_OPUS
Duration : 2 h 10 min
Bit rate : 121 kb/s
Channel(s) : 2 channels
Channel positions : Front: L R
Sampling rate : 48.0 kHz
Frame rate : 50.000 FPS (960 SPF)
Compression mode : Lossy
Delay relative to video : -7 ms
Stream size : 113 MiB (11%)
Title : Stereo
Language : English
Default : Yes
Forced : No

Text
ID : 3
Format : ASS
Codec ID : S_TEXT/ASS
Codec ID/Info : Advanced Sub Station Alpha
Duration : 2 h 4 min
Bit rate : 80 b/s
Count of elements : 1304
Compression mode : Lossless
Stream size : 73.2 KiB (0%)
Language : English
Default : Yes
Forced : Yes

[collapse]
Download Link(s)

Download

[RE-UP]-Direct download files get automatically deleted after a month or so. Posted on : 08/03/2018

[collapse]
Magnet Link

Magnet

Source : The.Hurt.Locker.2008.LiMiTED.1080p.BluRay.x264-FSiHD-10.92 GB

[collapse]

You may also like...

error: nah :p~