The Illusionist (2006)

PG-13 | 1h 50min | Drama, Mystery, Romance | 1 September 2006 (USA)

In turn-of-the-century Vienna, a magician uses his abilities to secure the love of a woman far above his social standing.

Watch trailer

Media information

General
Format : Matroska
Format version : Version 4 / Version 2
File size : 430 MiB
Duration : 1 h 48 min
Overall bit rate : 552 kb/s
Movie name : The.Illusionist.720p.BluRay.2CH.x265.HEVC
Encoded date : UTC 2018-08-02 14:47:06
Writing application : mkvmerge v25.0.0 (‘Prog Noir’) 32-bit
Writing library : libebml v1.3.6 + libmatroska v1.4.9

Video
ID : 1
Format : HEVC
Format/Info : High Efficiency Video Coding
Format profile : [email protected]@Main
Codec ID : V_MPEGH/ISO/HEVC
Duration : 1 h 48 min
Bit rate : 430 kb/s
Width : 1 280 pixels
Height : 720 pixels
Display aspect ratio : 16:9
Frame rate mode : Constant
Frame rate : 23.976 (24000/1001) FPS
Color space : YUV
Chroma subsampling : 4:2:0
Bit depth : 8 bits
Bits/(Pixel*Frame) : 0.019
Stream size : 335 MiB (78%)
Default : Yes
Forced : No
Color range : Limited
Color primaries : BT.709
Transfer characteristics : BT.709
Matrix coefficients : BT.709

Audio
ID : 2
Format : Opus
Codec ID : A_OPUS
Duration : 1 h 48 min
Bit rate : 120 kb/s
Channel(s) : 2 channels
Channel positions : Front: L R
Sampling rate : 48.0 kHz
Frame rate : 50.000 FPS (960 SPF)
Compression mode : Lossy
Delay relative to video : 14 ms
Stream size : 93.4 MiB (22%)
Title : Stereo
Language : English
Default : Yes
Forced : No

Text
ID : 3
Format : ASS
Codec ID : S_TEXT/ASS
Codec ID/Info : Advanced Sub Station Alpha
Duration : 1 h 40 min
Bit rate : 92 b/s
Count of elements : 1005
Compression mode : Lossless
Stream size : 68.0 KiB (0%)
Language : English
Default : Yes
Forced : Yes

[collapse]
Download Link(s)

Download

[RE-UP] -Direct download files get automatically deleted after a month or so. Posted on : 08/02/2018

[collapse]
Magnet Link

Magnet

Source : The-Illusionist-2006-1080p-BluRay-x265-HEVC-10bit-AAC-5-1-Tigole-QxR-3.5 GB

[collapse]

You may also like...

error: nah :p~