The Informers (2008)

R | 1h 38min | Crime, Drama, Thriller | 24 April 2009 (USA)

One week in L.A. in 1983, featuring movie executives, rock stars, a vampire and other morally challenged characters in adventures laced with sex, drugs and violence.

Watch trailer

Media information

General
Format : Matroska
Format version : Version 4
File size : 902 MiB
Duration : 1 h 37 min
Overall bit rate : 1 290 kb/s
Movie name : The.Informers.2009.720p.BluRay.2CH.x264.AVC
Encoded date : UTC 2019-01-09 20:52:17
Writing application : mkvmerge v30.1.0 (‘Forever And More’) 32-bit
Writing library : libebml v1.3.6 + libmatroska v1.4.9

Video
ID : 2
Format : AVC
Format/Info : Advanced Video Codec
Format profile : [email protected]
Format settings : CABAC / 8 Ref Frames
Format settings, CABAC : Yes
Format settings, RefFrames : 8 frames
Codec ID : V_MPEG4/ISO/AVC
Duration : 1 h 37 min
Bit rate : 1 189 kb/s
Width : 1 280 pixels
Height : 534 pixels
Display aspect ratio : 2.40:1
Original display aspect ratio : 2.40:1
Frame rate mode : Constant
Frame rate : 23.976 (24000/1001) FPS
Color space : YUV
Chroma subsampling : 4:2:0
Bit depth : 8 bits
Scan type : Progressive
Bits/(Pixel*Frame) : 0.073
Stream size : 831 MiB (92%)
Default : Yes
Forced : No
Color range : Limited
Color primaries : BT.709
Transfer characteristics : BT.709
Matrix coefficients : BT.709

Audio
ID : 1
Format : AAC LC SBR
Commercial name : HE-AAC
Format settings : Explicit
Codec ID : A_AAC-2
Duration : 1 h 37 min
Bit rate : 100.0 kb/s
Channel(s) : 2 channels
Channel layout : L R
Sampling rate : 48.0 kHz
Frame rate : 23.438 FPS (2048 SPF)
Compression mode : Lossy
Delay relative to video : 31 ms
Stream size : 70.0 MiB (8%)
Language : English
Default : Yes
Forced : No

Text
ID : 3
Format : UTF-8
Codec ID : S_TEXT/UTF8
Codec ID/Info : UTF-8 Plain Text
Duration : 1 h 27 min
Bit rate : 52 b/s
Count of elements : 931
Stream size : 33.7 KiB (0%)
Language : English
Default : Yes
Forced : No

[collapse]
Download Link(s)

Download

[RE-UP]-Direct download files get automatically deleted after a month or so. Posted on: 03/11/2019

[collapse]
Magnet Link

Magnet

The.Informers.2008.1080p.BluRay.x264-Japhson-7.95 GB

[collapse]

You may also like...

error: nah :p~