The Intouchables (2011)

Intouchables (original title)|R | 1h 52min | Biography, Comedy, Drama | 2 November 2011 (France)

After he becomes a quadriplegic from a paragliding accident, an aristocrat hires a young man from the projects to be his caregiver.

Watch trailer

Media information

General
Format : Matroska
Format version : Version 4
File size : 854 MiB
Duration : 1 h 52 min
Overall bit rate : 1 063 kb/s
Movie name : The.Intouchables.2011.AKA.Untouchable.720p.BluRay.2CH.x264.AVC
Encoded date : UTC 2019-04-11 20:13:56
Writing application : mkvmerge v32.0.0 (‘Astral Progressions’) 32-bit
Writing library : libebml v1.3.7 + libmatroska v1.5.0

Video
ID : 1
Format : AVC
Format/Info : Advanced Video Codec
Format profile : [email protected]
Format settings : CABAC / 5 Ref Frames
Format settings, CABAC : Yes
Format settings, RefFrames : 5 frames
Codec ID : V_MPEG4/ISO/AVC
Duration : 1 h 52 min
Bit rate : 980 kb/s
Width : 1 280 pixels
Height : 720 pixels
Display aspect ratio : 16:9
Frame rate mode : Constant
Frame rate : 23.976 (24000/1001) FPS
Color space : YUV
Chroma subsampling : 4:2:0
Bit depth : 8 bits
Scan type : Progressive
Bits/(Pixel*Frame) : 0.044
Stream size : 787 MiB (92%)
Default : Yes
Forced : No
Color range : Limited
Color primaries : BT.709
Transfer characteristics : BT.709
Matrix coefficients : BT.709

Audio
ID : 2
Format : AAC LC
Codec ID : A_AAC-2
Duration : 1 h 52 min
Bit rate : 80.3 kb/s
Channel(s) : 2 channels
Channel layout : L R
Sampling rate : 48.0 kHz
Frame rate : 46.875 FPS (1024 SPF)
Compression mode : Lossy
Delay relative to video : -104 ms
Stream size : 64.5 MiB (8%)
Title : Stereo
Language : French
Default : Yes
Forced : No

Text
ID : 3
Format : ASS
Codec ID : S_TEXT/ASS
Duration : 1 h 51 min
Bit rate : 93 b/s
Count of elements : 1651
Compression mode : Lossless
Stream size : 76.5 KiB (0%)
Language : English
Default : No
Forced : No

[collapse]
Download Link(s)

Download

Direct download files get automatically deleted after a month or so. Posted on : 04/12/2019

[collapse]
Magnet Link

Magnet

The.Intouchables.2011.AKA.Untouchable.720p.BluRay.x264-GECKOS-4.37 GB

[collapse]

You may also like...

error: nah :p~