The Inventor: Out for Blood in Silicon Valley (2019)

TV-14 | 1h 59min | Documentary | 18 March 2019 (USA)

The story of Theranos, a multi-billion dollar tech company, its founder Elizabeth Holmes, the youngest self-made female billionaire, and the massive fraud that collapsed the company.

Watch trailer

Media information

General
Format : Matroska
Format version : Version 4
File size : 692 MiB
Duration : 1 h 58 min
Overall bit rate : 813 kb/s
Movie name : The.Inventor.Out.for.Blood.in.Silicon.Valley.2019.DOCU.720p.WEBRip.2CH.x265.HEVC
Encoded date : UTC 2019-03-20 09:32:41
Writing application : mkvmerge v32.0.0 (‘Astral Progressions’) 32-bit
Writing library : libebml v1.3.7 + libmatroska v1.5.0

Video
ID : 1
Format : HEVC
Format/Info : High Efficiency Video Coding
Format profile : [email protected]@Main
Codec ID : V_MPEGH/ISO/HEVC
Duration : 1 h 58 min
Bit rate : 741 kb/s
Width : 1 280 pixels
Height : 720 pixels
Display aspect ratio : 16:9
Frame rate mode : Constant
Frame rate : 23.976 (24000/1001) FPS
Color space : YUV
Chroma subsampling : 4:2:0
Bit depth : 8 bits
Bits/(Pixel*Frame) : 0.034
Stream size : 630 MiB (91%)
Default : Yes
Forced : No

Audio
ID : 2
Format : AAC LC SBR
Commercial name : HE-AAC
Format settings : Explicit
Codec ID : A_AAC-2
Duration : 1 h 58 min
Bit rate : 69.9 kb/s
Channel(s) : 2 channels
Channel layout : L R
Sampling rate : 48.0 kHz
Frame rate : 23.438 FPS (2048 SPF)
Compression mode : Lossy
Delay relative to video : 23 ms
Stream size : 59.4 MiB (9%)
Language : English
Default : Yes
Forced : No

Text #1
ID : 3
Format : UTF-8
Codec ID : S_TEXT/UTF8
Codec ID/Info : UTF-8 Plain Text
Duration : 1 h 58 min
Bit rate : 110 b/s
Count of elements : 2426
Stream size : 95.8 KiB (0%)
Title : ENG
Language : English
Default : Yes
Forced : No

Text #2
ID : 4
Format : UTF-8
Codec ID : S_TEXT/UTF8
Codec ID/Info : UTF-8 Plain Text
Duration : 1 h 58 min
Bit rate : 111 b/s
Count of elements : 2503
Stream size : 96.3 KiB (0%)
Title : ENG SDH
Language : English
Default : No
Forced : No

[collapse]
Download Link(s)

Download

Direct download files get automatically deleted after a month or so. Posted on : 03/20/2019

[collapse]
Magnet Link

Magnet

The.Inventor.Out.for.Blood.in.Silicon.Valley.2019.1080p.AMZN.WEBRip.DDP5.1.x264-NTG-6.75 GB

[collapse]

You may also like...

error: nah :p~