The Last Samurai (2003)

R | 2h 34min | Action, Drama, History | 5 December 2003 (USA)

An American military advisor embraces the Samurai culture he was hired to destroy after he is captured in battle.

Watch trailer

Media information

General
Format : Matroska
Format version : Version 4
File size : 1.65 GiB
Duration : 2 h 34 min
Overall bit rate : 1 531 kb/s
Movie name : The.Last.Samurai.2003.1080p.BluRay.2CH.x265.HEVC
Encoded date : UTC 2018-09-21 18:17:59
Writing application : mkvmerge v26.0.0 (‘In The Game’) 32-bit
Writing library : libebml v1.3.6 + libmatroska v1.4.9

Video
ID : 1
Format : HEVC
Format/Info : High Efficiency Video Coding
Format profile : [email protected]@Main
Codec ID : V_MPEGH/ISO/HEVC
Duration : 2 h 34 min
Bit rate : 1 416 kb/s
Width : 1 920 pixels
Height : 792 pixels
Display aspect ratio : 2.40:1
Frame rate mode : Constant
Frame rate : 23.976 (24000/1001) FPS
Color space : YUV
Chroma subsampling : 4:2:0
Bit depth : 8 bits
Bits/(Pixel*Frame) : 0.039
Stream size : 1.53 GiB (93%)
Default : Yes
Forced : No
Color range : Limited
Color primaries : BT.709
Transfer characteristics : BT.709
Matrix coefficients : BT.709

Audio
ID : 2
Format : AAC LC
Codec ID : A_AAC-2
Duration : 2 h 34 min
Bit rate : 112 kb/s
Channel(s) : 2 channels
Channel layout : L R
Sampling rate : 48.0 kHz
Frame rate : 46.875 FPS (1024 SPF)
Compression mode : Lossy
Stream size : 124 MiB (7%)
Title : Stereo
Language : English
Default : Yes
Forced : No

Text
ID : 3
Format : ASS
Codec ID : S_TEXT/ASS
Codec ID/Info : Advanced Sub Station Alpha
Duration : 2 h 33 min
Bit rate : 52 b/s
Count of elements : 1082
Compression mode : Lossless
Stream size : 59.3 KiB (0%)
Language : English
Default : Yes
Forced : Yes

[collapse]
Download Link(s)

Part01 Part02

Direct download files get automatically deleted after a month or so. Posted on : 09/21/2018

[collapse]
Magnet Link

Magnet

Source : The.Last.Samurai.2003.1080p.BluRay.VC-1.TrueHD.5.1-FGT-35.18 GB

[collapse]

Media information

General
Format : Matroska
Format version : Version 4
File size : 1.02 GiB
Duration : 2 h 34 min
Overall bit rate : 949 kb/s
Movie name : The.Last.Samurai.2003.720p.BluRay.2CH.x265.HEVC
Encoded date : UTC 2018-09-22 18:00:58
Writing application : mkvmerge v26.0.0 (‘In The Game’) 32-bit
Writing library : libebml v1.3.6 + libmatroska v1.4.9

Video
ID : 1
Format : HEVC
Format/Info : High Efficiency Video Coding
Format profile : [email protected]@Main
Codec ID : V_MPEGH/ISO/HEVC
Duration : 2 h 34 min
Bit rate : 851 kb/s
Width : 1 280 pixels
Height : 528 pixels
Display aspect ratio : 2.40:1
Frame rate mode : Constant
Frame rate : 23.976 (24000/1001) FPS
Color space : YUV
Chroma subsampling : 4:2:0
Bit depth : 8 bits
Bits/(Pixel*Frame) : 0.053
Stream size : 938 MiB (90%)
Default : Yes
Forced : No
Color range : Limited
Color primaries : BT.709
Transfer characteristics : BT.709
Matrix coefficients : BT.709

Audio
ID : 2
Format : AAC LC
Codec ID : A_AAC-2
Duration : 2 h 34 min
Bit rate : 96.0 kb/s
Channel(s) : 2 channels
Channel layout : L R
Sampling rate : 48.0 kHz
Frame rate : 46.875 FPS (1024 SPF)
Compression mode : Lossy
Stream size : 106 MiB (10%)
Title : Stereo
Language : English
Default : Yes
Forced : No

Text
ID : 3
Format : ASS
Codec ID : S_TEXT/ASS
Duration : 2 h 33 min
Bit rate : 52 b/s
Count of elements : 1082
Compression mode : Lossless
Stream size : 59.3 KiB (0%)
Language : English
Default : Yes
Forced : Yes

[collapse]
Download Link(s)

Download

Direct download files get automatically deleted after a month or so. Posted on : 09/22/2018

[collapse]
Magnet Link

Magnet

Source : The.Last.Samurai.2003.1080p.BluRay.VC-1.TrueHD.5.1-FGT-35.18 GB

[collapse]

You may also like...

error: nah :p~