The Lord of the Rings: The Fellowship of the Ring (2001)

PG-13 | 2h 58min | Action, Adventure, Drama | 19 December 2001 (USA)

A meek Hobbit from the Shire and eight companions set out on a journey to destroy the powerful One Ring and save Middle-earth from the Dark Lord Sauron.

Watch trailer

Media information

General
Format : Matroska
Format version : Version 4
File size : 4.97 GiB
Duration : 2 h 58 min
Overall bit rate : 3 988 kb/s
Movie name : The.Lord.of.the.Rings.The.Fellowship.of.the.Ring.2001.Theatrical.Cut.2160p.10bit.BluRay.8CH.x265.HEVC

Video
ID : 1
Format : HEVC
Format/Info : High Efficiency Video Coding
Format profile : Main [email protected]@Main
Codec ID : V_MPEGH/ISO/HEVC
Duration : 2 h 58 min
Bit rate : 3 601 kb/s
Width : 3 840 pixels
Height : 1 600 pixels
Display aspect ratio : 2.40:1
Frame rate mode : Constant
Frame rate : 23.976 (24000/1001) FPS
Color space : YUV
Chroma subsampling : 4:2:0
Bit depth : 10 bits
Bits/(Pixel*Frame) : 0.024
Stream size : 4.49 GiB (90%)
Default : Yes
Forced : No
Color range : Limited
Color primaries : BT.709
Transfer characteristics : BT.709
Matrix coefficients : BT.709

Audio
ID : 2
Format : AAC LC
Codec ID : A_AAC-2
Duration : 2 h 58 min
Bit rate : 384 kb/s
Channel(s) : 8 channels
Channel layout : C L R Ls Rs Lw Rw LFE
Sampling rate : 48.0 kHz
Frame rate : 46.875 FPS (1024 SPF)
Compression mode : Lossy
Delay relative to video : -12 ms
Stream size : 490 MiB (10%)
Language : English
Default : Yes
Forced : No

Text
ID : 3
Format : UTF-8
Codec ID : S_TEXT/UTF8
Codec ID/Info : UTF-8 Plain Text
Duration : 2 h 49 min
Bit rate : 33 b/s
Count of elements : 1390
Stream size : 42.0 KiB (0%)
Language : English
Default : Yes
Forced : No

[collapse]
Download Link(s)

Part01 Part02 Part03

Direct download files get automatically deleted after a month or so. Posted on : 08/12/2020

[collapse]
Magnet Link

Magnet

The-Lord-of-the-Rings-The-Fellowship-of-the-Ring-2001-Theatrical-Cut-Featurettes-2160p-Bluray-x265-HEVC-AI-10bit-AAC-7-1-10.1 GB

[collapse]

Media information

General
Format : Matroska
Format version : Version 4
File size : 2.85 GiB
Duration : 2 h 58 min
Overall bit rate : 2 287 kb/s
Movie name : The.Lord.of.the.Rings.The.Fellowship.of.the.Ring.2001.Theatrical.Cut.1080p.10bit.BluRay.8CH.x265.HEVC

Video
ID : 1
Format : HEVC
Format/Info : High Efficiency Video Coding
Format profile : Main [email protected]@Main
Codec ID : V_MPEGH/ISO/HEVC
Duration : 2 h 58 min
Bit rate : 1 901 kb/s
Width : 1 920 pixels
Height : 800 pixels
Display aspect ratio : 2.40:1
Frame rate mode : Constant
Frame rate : 23.976 (24000/1001) FPS
Color space : YUV
Chroma subsampling : 4:2:0
Bit depth : 10 bits
Bits/(Pixel*Frame) : 0.052
Stream size : 2.37 GiB (83%)
Default : Yes
Forced : No
Color range : Limited
Color primaries : BT.709
Transfer characteristics : BT.709
Matrix coefficients : BT.709

Audio
ID : 2
Format : AAC LC
Codec ID : A_AAC-2
Duration : 2 h 58 min
Bit rate : 384 kb/s
Channel(s) : 8 channels
Channel layout : C L R Ls Rs Lw Rw LFE
Sampling rate : 48.0 kHz
Frame rate : 46.875 FPS (1024 SPF)
Compression mode : Lossy
Delay relative to video : -12 ms
Stream size : 490 MiB (17%)
Language : English
Default : Yes
Forced : No

Text
ID : 3
Format : UTF-8
Codec ID : S_TEXT/UTF8
Codec ID/Info : UTF-8 Plain Text
Duration : 2 h 49 min
Bit rate : 33 b/s
Count of elements : 1390
Stream size : 42.0 KiB (0%)
Language : English
Default : Yes
Forced : No

[collapse]
Download Link(s)

Part01 Part02

Direct download files get automatically deleted after a month or so. Posted on : 08/11/2020

[collapse]
Magnet Link

Magnet

The-Lord-of-the-Rings-The-Fellowship-of-the-Ring-2001-Theatrical-Cut-Featurettes-2160p-Bluray-x265-HEVC-AI-10bit-AAC-7-1-10.1 GB

[collapse]

Media information

General
Format : Matroska
Format version : Version 4
File size : 1.44 GiB
Duration : 2 h 58 min
Overall bit rate : 1 159 kb/s
Movie name : The.Lord.of.the.Rings.The.Fellowship.of.the.Ring.2001.Theatrical.Cut.720p.10bit.BluRay.6CH.x265.HEVC

Video
ID : 1
Format : HEVC
Format/Info : High Efficiency Video Coding
Format profile : Main [email protected]@Main
Codec ID : V_MPEGH/ISO/HEVC
Duration : 2 h 58 min
Bit rate : 901 kb/s
Width : 1 280 pixels
Height : 534 pixels
Display aspect ratio : 2.40:1
Frame rate mode : Constant
Frame rate : 23.976 (24000/1001) FPS
Color space : YUV
Chroma subsampling : 4:2:0
Bit depth : 10 bits
Bits/(Pixel*Frame) : 0.055
Stream size : 1.12 GiB (78%)
Default : Yes
Forced : No
Color range : Limited
Color primaries : BT.709
Transfer characteristics : BT.709
Matrix coefficients : BT.709

Audio
ID : 2
Format : AAC LC
Codec ID : A_AAC-2
Duration : 2 h 58 min
Bit rate : 256 kb/s
Channel(s) : 6 channels
Channel layout : C L R Ls Rs LFE
Sampling rate : 48.0 kHz
Frame rate : 46.875 FPS (1024 SPF)
Compression mode : Lossy
Delay relative to video : -12 ms
Stream size : 327 MiB (22%)
Language : English
Default : Yes
Forced : No

Text
ID : 3
Format : UTF-8
Codec ID : S_TEXT/UTF8
Codec ID/Info : UTF-8 Plain Text
Duration : 2 h 49 min
Bit rate : 33 b/s
Count of elements : 1390
Stream size : 42.0 KiB (0%)
Language : English
Default : Yes
Forced : No

[collapse]
Download Link(s)

Download

Direct download files get automatically deleted after a month or so. Posted on : 08/11/2020

[collapse]
Magnet Link

Magnet

The-Lord-of-the-Rings-The-Fellowship-of-the-Ring-2001-Theatrical-Cut-Featurettes-2160p-Bluray-x265-HEVC-AI-10bit-AAC-7-1-10.1 GB

[collapse]

You may also like...

error: nah :p~