The Lord of the Rings: The Return of the King (2003)

PG-13 | 3h 21min | Action, Adventure, Drama | 17 December 2003 (USA)

Gandalf and Aragorn lead the World of Men against Sauron’s army to draw his gaze from Frodo and Sam as they approach Mount Doom with the One Ring.

Watch trailer

Media information

General
Format : Matroska
Format version : Version 4
File size : 5.64 GiB
Duration : 3 h 21 min
Overall bit rate : 4 015 kb/s
Movie name : The.Lord.of.the.Rings.The.Return.of.the.King.2003.Theatrical.Cut.2160p.10bit.BluRay.8CH.x265.HEVC

Video
ID : 1
Format : HEVC
Format/Info : High Efficiency Video Coding
Format profile : Main [email protected]@Main
Codec ID : V_MPEGH/ISO/HEVC
Duration : 3 h 21 min
Bit rate : 3 501 kb/s
Width : 3 840 pixels
Height : 1 600 pixels
Display aspect ratio : 2.40:1
Frame rate mode : Constant
Frame rate : 23.976 (24000/1001) FPS
Color space : YUV
Chroma subsampling : 4:2:0
Bit depth : 10 bits
Bits/(Pixel*Frame) : 0.024
Stream size : 4.92 GiB (87%)
Default : Yes
Forced : No
Color range : Limited
Color primaries : BT.709
Transfer characteristics : BT.709
Matrix coefficients : BT.709

Audio
ID : 2
Format : AAC LC
Codec ID : A_AAC-2
Duration : 3 h 21 min
Bit rate : 512 kb/s
Channel(s) : 8 channels
Channel layout : C L R Ls Rs Lw Rw LFE
Sampling rate : 48.0 kHz
Frame rate : 46.875 FPS (1024 SPF)
Compression mode : Lossy
Delay relative to video : -12 ms
Stream size : 737 MiB (13%)
Language : English
Default : Yes
Forced : No

Text
ID : 3
Format : UTF-8
Codec ID : S_TEXT/UTF8
Codec ID/Info : UTF-8 Plain Text
Duration : 3 h 16 min
Bit rate : 25 b/s
Count of elements : 1408
Stream size : 36.0 KiB (0%)
Language : English
Default : Yes
Forced : No

[collapse]
Download Link(s)

Part01 Part02 Part03

Direct download files get automatically deleted after a month or so. Posted on : 08/14/2020

[collapse]
Magnet Link

Magnet

The-Lord-of-the-Rings-The-Return-of-the-King-2003-Theatrical-Cut-Featurettes-2160p-Bluray-x265-HEVC-AI-10bit-AAC-7-1-11.9 GB

[collapse]

Media information

General
Format : Matroska
Format version : Version 4
File size : 3.33 GiB
Duration : 3 h 21 min
Overall bit rate : 2 370 kb/s
Movie name : The.Lord.of.the.Rings.The.Return.of.the.King.2003.Theatrical.Cut.1080p.10bit.BluRay.8CH.x265.HEVC

Video
ID : 1
Format : HEVC
Format/Info : High Efficiency Video Coding
Format profile : Main [email protected]@Main
Codec ID : V_MPEGH/ISO/HEVC
Duration : 3 h 21 min
Bit rate : 1 856 kb/s
Width : 1 920 pixels
Height : 800 pixels
Display aspect ratio : 2.40:1
Frame rate mode : Constant
Frame rate : 23.976 (24000/1001) FPS
Color space : YUV
Chroma subsampling : 4:2:0
Bit depth : 10 bits
Bits/(Pixel*Frame) : 0.050
Stream size : 2.61 GiB (78%)
Default : Yes
Forced : No
Color range : Limited
Color primaries : BT.709
Transfer characteristics : BT.709
Matrix coefficients : BT.709

Audio
ID : 2
Format : AAC LC
Codec ID : A_AAC-2
Duration : 3 h 21 min
Bit rate : 512 kb/s
Channel(s) : 8 channels
Channel layout : C L R Ls Rs Lw Rw LFE
Sampling rate : 48.0 kHz
Frame rate : 46.875 FPS (1024 SPF)
Compression mode : Lossy
Delay relative to video : -12 ms
Stream size : 737 MiB (22%)
Language : English
Default : Yes
Forced : No

Text
ID : 3
Format : UTF-8
Codec ID : S_TEXT/UTF8
Codec ID/Info : UTF-8 Plain Text
Duration : 3 h 16 min
Bit rate : 25 b/s
Count of elements : 1408
Stream size : 36.0 KiB (0%)
Language : English
Default : Yes
Forced : No

[collapse]
Download Link(s)

Part01 Part02

Direct download files get automatically deleted after a month or so. Posted on : 08/14/2020

[collapse]
Magnet Link

Magnet

The-Lord-of-the-Rings-The-Return-of-the-King-2003-Theatrical-Cut-Featurettes-2160p-Bluray-x265-HEVC-AI-10bit-AAC-7-1-11.9 GB

[collapse]

Media information

General
Format : Matroska
Format version : Version 4
File size : 1.81 GiB
Duration : 3 h 21 min
Overall bit rate : 1 287 kb/s
Movie name : The.Lord.of.the.Rings.The.Return.of.the.King.2003.Theatrical.Cut.720p.10bit.BluRay.6CH.x265.HEVC

Video
ID : 1
Format : HEVC
Format/Info : High Efficiency Video Coding
Format profile : Main [email protected]@Main
Codec ID : V_MPEGH/ISO/HEVC
Duration : 3 h 21 min
Bit rate : 901 kb/s
Width : 1 280 pixels
Height : 534 pixels
Display aspect ratio : 2.40:1
Frame rate mode : Constant
Frame rate : 23.976 (24000/1001) FPS
Color space : YUV
Chroma subsampling : 4:2:0
Bit depth : 10 bits
Bits/(Pixel*Frame) : 0.055
Stream size : 1.26 GiB (70%)
Default : Yes
Forced : No
Color range : Limited
Color primaries : BT.709
Transfer characteristics : BT.709
Matrix coefficients : BT.709

Audio
ID : 2
Format : AAC LC
Codec ID : A_AAC-2
Duration : 3 h 21 min
Bit rate : 384 kb/s
Channel(s) : 6 channels
Channel layout : C L R Ls Rs LFE
Sampling rate : 48.0 kHz
Frame rate : 46.875 FPS (1024 SPF)
Compression mode : Lossy
Delay relative to video : -12 ms
Stream size : 553 MiB (30%)
Language : English
Default : Yes
Forced : No

Text
ID : 3
Format : UTF-8
Codec ID : S_TEXT/UTF8
Codec ID/Info : UTF-8 Plain Text
Duration : 3 h 16 min
Bit rate : 25 b/s
Count of elements : 1408
Stream size : 36.0 KiB (0%)
Language : English
Default : Yes
Forced : No

[collapse]
Download Link(s)

Download

Direct download files get automatically deleted after a month or so. Posted on : 08/13/2020

[collapse]
Magnet Link

Magnet

The-Lord-of-the-Rings-The-Return-of-the-King-2003-Theatrical-Cut-Featurettes-2160p-Bluray-x265-HEVC-AI-10bit-AAC-7-1-11.9 GB

[collapse]

You may also like...

error: nah :p~