The Lost City of Z (2016)

PG-13 | 2h 21min | Adventure, Biography, Drama | 21 April 2017 (USA)

A true-life drama, centering on British explorer Col. Percival Fawcett, who disappeared while searching for a mysterious city in the Amazon in the 1920s.

Watch trailer

Media information

General
Format : Matroska
Format version : Version 4 / Version 2
File size : 841 MiB
Duration : 2 h 21 min
Overall bit rate : 833 kb/s
Movie name : The.Lost.City.of.Z.2016.720p.BrRip.2CH.x265.HEVC
Encoded date : UTC 2018-04-21 16:14:13
Writing application : mkvmerge v22.0.0 (‘At The End Of The World’) 32-bit
Writing library : libebml v1.3.5 + libmatroska v1.4.8

Video
ID : 1
Format : HEVC
Format/Info : High Efficiency Video Coding
Format profile : [email protected]@Main
Codec ID : V_MPEGH/ISO/HEVC
Duration : 2 h 21 min
Bit rate : 760 kb/s
Width : 1 280 pixels
Height : 536 pixels
Display aspect ratio : 2.40:1
Frame rate mode : Constant
Frame rate : 23.976 (24000/1001) FPS
Color space : YUV
Chroma subsampling : 4:2:0
Bit depth : 8 bits
Bits/(Pixel*Frame) : 0.046
Stream size : 768 MiB (91%)
Default : Yes
Forced : No

Audio
ID : 2
Format : AAC
Format/Info : Advanced Audio Codec
Format profile : HE-AAC / LC
Format settings : Explicit
Codec ID : A_AAC-2
Duration : 2 h 21 min
Bit rate : 70.5 kb/s
Channel(s) : 2 channels
Channel positions : Front: L R
Sampling rate : 48.0 kHz / 24.0 kHz
Frame rate : 23.438 FPS (1024 SPF)
Compression mode : Lossy
Delay relative to video : 23 ms
Stream size : 71.3 MiB (8%)
Default : Yes
Forced : No

Text
ID : 3
Format : UTF-8
Codec ID : S_TEXT/UTF8
Codec ID/Info : UTF-8 Plain Text
Duration : 2 h 10 min
Bit rate : 63 b/s
Count of elements : 1567
Stream size : 61.3 KiB (0%)
Language : English
Default : Yes
Forced : No

[collapse]
Download Link(s)

Download

Direct download files get automatically deleted after a month or so. Posted on : 04/21/2018

[collapse]
Magnet Link

Magnet

Source : The.Lost.City.of.Z.2016.1080p.BluRay.x264-GECKOS-10.94 GB

[collapse]

You may also like...

error: nah :p~