The Lotus (2018)

Not Rated | 1h 25min | Action, Horror, Sci-Fi | 6 March 2018 (USA)

In the not so distant future, biochemical technology has advanced in unexpected ways. Unfortunately, it has fallen into the hands of the wrong man. A brilliant young biochemist by the name of Jacob, who believes the world is a better place without humanity. Jacob decides to take matters into his own hands by beginning the process to wipe everyone out. Staging biochemical attacks through out the city, the virus is released, infecting millions, from a matter of seconds. The virus is fierce, causing chaos and destruction everywhere. Across the way, just minutes before the attack, a young woman, by the name of Cee is caught in the whirlwind of her sister’s wedding. As the wedding begins, the virus hits. Infecting everyone. Cee watches the attack unfold before her eyes, as dozens of loved ones perish. Waiting for the infection to take her, Cee finds herself alone in the early days of an apocalyptic world, surrounded by chaos and war. Fighting to survive as long as she can, she meets a mysterious man by the name of Caleb, who works for the world’s largest biochemical engineering company. Caleb reveals a handful of classified information regarding the true origin of the virus, that will not only change her life forever but the lives of anyone lucky enough to survive on earth. As an unexpected attack from nearby horde hits the highway, Cee is separated from Caleb, finding herself hopeless and alone, until she’s picked up by a group of survivors who are on the search to destroy Jacob and stop his violent attacks. The Lotus takes you on an unexpected adventure full of twists, jaw-dropping action, a great mix of characters, and reveals that will finally give us the answer we have all been waiting for…What is The Lotus?

Watch trailer

Media information

General
Format : Matroska
Format version : Version 4
File size : 652 MiB
Duration : 1 h 22 min
Overall bit rate : 1 110 kb/s
Movie name : The Lotus.2018.720p.WEB-DL.2CH.x264.AVC
Encoded date : UTC 2018-09-06 21:47:21
Writing application : mkvmerge v26.0.0 (‘In The Game’) 32-bit
Writing library : libebml v1.3.6 + libmatroska v1.4.9

Video
ID : 1
Format : AVC
Format/Info : Advanced Video Codec
Format profile : [email protected]
Format settings : CABAC / 4 Ref Frames
Format settings, CABAC : Yes
Format settings, RefFrames : 4 frames
Codec ID : V_MPEG4/ISO/AVC
Duration : 1 h 22 min
Bit rate : 1 000 kb/s
Width : 1 280 pixels
Height : 720 pixels
Display aspect ratio : 16:9
Frame rate mode : Constant
Frame rate : 23.976 (24000/1001) FPS
Color space : YUV
Chroma subsampling : 4:2:0
Bit depth : 8 bits
Scan type : Progressive
Bits/(Pixel*Frame) : 0.045
Stream size : 576 MiB (88%)
Default : Yes
Forced : No
Color range : Limited
Color primaries : BT.709
Transfer characteristics : BT.709
Matrix coefficients : BT.709

Audio
ID : 2
Format : AAC LC SBR
Commercial name : HE-AAC
Format settings : NBC
Codec ID : A_AAC-5
Duration : 1 h 22 min
Bit rate : 128 kb/s
Channel(s) : 2 channels
Channel layout : L R
Sampling rate : 48.0 kHz
Frame rate : 23.438 FPS (2048 SPF)
Compression mode : Lossy
Delay relative to video : -105 ms
Stream size : 75.2 MiB (12%)
Language : English
Default : Yes
Forced : No

Text
ID : 3
Format : ASS
Codec ID : S_TEXT/ASS
Codec ID/Info : Advanced Sub Station Alpha
Duration : 1 h 21 min
Bit rate : 71 b/s
Count of elements : 897
Compression mode : Lossless
Stream size : 42.6 KiB (0%)
Language : English
Default : Yes
Forced : No

[collapse]
Download Link(s)

Download

[RE-UP]-Direct download files get automatically deleted after a month or so. Posted on : 09/07/2018

[collapse]
Magnet Link

Magnet

Source : The.Lotus.2018.1080p.WEB-DL.DD5.1.H264-FGT-3.19 GB

[collapse]

You may also like...

error: nah :p~