The Lullaby (2018)

Siembamba (original title)|1h 26min | Horror | 1 March 2018 (USA)

Returning to her home town, Eden Rock, and overwhelmed by the birth of her first born, Chloe van Heerden (19) tries to come to terms with motherhood. Despite the support from her loving mother, Ruby (35), Chloe struggles with the demand of being a new mom. The incessant crying of her baby, the growing sense of guilt and paranoia sends Chloe into a dark depression. With a heightened urge to protect her son, Chloe sees danger in every situation. Distraught she pays a visit to family psychologist Dr. Timothy Reed (40s) who diagnoses her intrusive thoughts and feelings of anxiousness to a mild case of baby blues. Yet the thoughts grow worse and more violent. Chloe starts to hear voices and humming of a childhood lullaby and sees flashes of a strange entity around her child. Convinced that the entity is real, Chloe does everything in her power to protect her son. Her decline reaches fever pitch, and everybody seems to be moving against her. Desperate, Chloe finds solace in the arms of her childhood friend, Emile Hess (20s). The world around Chloe implodes and it becomes clear that she and her child are in imminent danger. But from what? Is Chloe haunted by evil or is it just the baby blues?

Watch trailer

Media information

General
Format : Matroska
Format version : Version 4 / Version 2
File size : 650 MiB
Duration : 1 h 26 min
Overall bit rate : 1 049 kb/s
Movie name : The.Lullaby.2018.720p.WEB-DL.2CH.x264.AVC
Encoded date : UTC 2018-03-09 20:25:06
Writing application : mkvmerge v21.0.0 (‘Tardigrades Will Inherit The Earth’) 32-bit
Writing library : libebml v1.3.5 + libmatroska v1.4.8

Video
ID : 1
Format : AVC
Format/Info : Advanced Video Codec
Format profile : [email protected]
Format settings : CABAC / 4 Ref Frames
Format settings, CABAC : Yes
Format settings, RefFrames : 4 frames
Codec ID : V_MPEG4/ISO/AVC
Duration : 1 h 26 min
Bit rate : 931 kb/s
Width : 1 280 pixels
Height : 536 pixels
Display aspect ratio : 2.40:1
Frame rate mode : Constant
Frame rate : 24.000 FPS
Color space : YUV
Chroma subsampling : 4:2:0
Bit depth : 8 bits
Scan type : Progressive
Bits/(Pixel*Frame) : 0.057
Stream size : 576 MiB (89%)
Writing library : x264 core 152 r2851 ba24899
Default : Yes
Forced : No

Audio
ID : 2
Format : AAC
Format/Info : Advanced Audio Codec
Format profile : LC
Codec ID : A_AAC-2
Duration : 1 h 26 min
Bit rate : 117 kb/s
Channel(s) : 2 channels
Channel positions : Front: L R
Sampling rate : 48.0 kHz
Frame rate : 46.875 FPS (1024 SPF)
Compression mode : Lossy
Delay relative to video : 22 ms
Stream size : 72.5 MiB (11%)
Language : English
Default : Yes
Forced : No

Text
ID : 3
Format : UTF-8
Codec ID : S_TEXT/UTF8
Codec ID/Info : UTF-8 Plain Text
Duration : 1 h 23 min
Bit rate : 32 b/s
Count of elements : 1042
Stream size : 20.2 KiB (0%)
Default : Yes
Forced : No

[collapse]
Download Link(s)

Download

Direct download files get automatically deleted after a month or so. Posted on : 03/09/2018

[collapse]
Magnet Link

Magnet

Source : The.Lullaby.2018.1080p.WEB-DL.DD5.1.H264-FGT-3.02 GB

[collapse]

You may also like...

error: nah :p~