The Man Who Killed Hitler and Then The Bigfoot (2018)

Not Rated | 1h 38min | Adventure, Drama | 8 February 2019 (USA)

A legendary American war veteran is recruited to hunt a mythical creature.

Watch trailer

Media information

General
Format : Matroska
Format version : Version 4
File size : 801 MiB
Duration : 1 h 37 min
Overall bit rate : 1 145 kb/s
Movie name : The.Man.Who.Killed.Hitler.and.Then.the.Bigfoot.2019.720p.WEB-DL.2CH.x264.AVC
Encoded date : UTC 2019-02-08 16:03:13
Writing application : mkvmerge v30.1.0 (‘Forever And More’) 32-bit
Writing library : libebml v1.3.6 + libmatroska v1.4.9

Video
ID : 2
Format : AVC
Format/Info : Advanced Video Codec
Format profile : [email protected]
Format settings : CABAC / 5 Ref Frames
Format settings, CABAC : Yes
Format settings, RefFrames : 5 frames
Codec ID : V_MPEG4/ISO/AVC
Duration : 1 h 37 min
Bit rate : 1 079 kb/s
Width : 1 280 pixels
Height : 532 pixels
Display aspect ratio : 2.40:1
Frame rate mode : Constant
Frame rate : 23.976 (24000/1001) FPS
Color space : YUV
Chroma subsampling : 4:2:0
Bit depth : 8 bits
Scan type : Progressive
Bits/(Pixel*Frame) : 0.066
Stream size : 755 MiB (94%)
Default : Yes
Forced : No

Audio
ID : 3
Format : AAC LC SBR
Commercial name : HE-AAC
Format settings : Explicit
Codec ID : A_AAC-2
Duration : 1 h 37 min
Bit rate : 64.0 kb/s
Channel(s) : 2 channels
Channel layout : L R
Sampling rate : 48.0 kHz
Frame rate : 23.438 FPS (2048 SPF)
Compression mode : Lossy
Delay relative to video : 1 ms
Stream size : 44.8 MiB (6%)
Language : English
Default : Yes
Forced : No

Text
ID : 1
Format : UTF-8
Codec ID : S_TEXT/UTF8
Codec ID/Info : UTF-8 Plain Text
Duration : 1 h 31 min
Bit rate : 33 b/s
Count of elements : 825
Stream size : 22.5 KiB (0%)
Language : English
Default : Yes
Forced : No

[collapse]
Download Link(s)

Download

Direct download files get automatically deleted after a month or so. Posted on : 02/09/2019

[collapse]
Magnet Link

Magnet

The.Man.Who.Killed.Hitler.and.Then.the.Bigfoot.2018.1080p.WEB-DL.DD5.1.H264-FGT-3.41 GB

[collapse]

You may also like...

error: nah :p~