The Man with the Magic Box (2017)

Czlowiek z magicznym pudelkiem (original title)|1h 43min | Drama, Romance, Sci-Fi | 20 October 2017 (Poland)

A janitor in Warsaw stumbles upon a time-traveling device in his apartment and gets stuck in the past while the woman he’s been seeing looks for him.

Watch trailer

Media information

General
Format : Matroska
Format version : Version 4 / Version 2
File size : 887 MiB
Duration : 1 h 40 min
Overall bit rate : 1 231 kb/s
Movie name : The.Man.with.the.Magic.Box.2017.720p.BluRay.2CH.x264.AVC
Encoded date : UTC 2018-03-19 18:00:26
Writing application : mkvmerge v21.0.0 (‘Tardigrades Will Inherit The Earth’) 32-bit
Writing library : libebml v1.3.5 + libmatroska v1.4.8

Video
ID : 1
Format : AVC
Format/Info : Advanced Video Codec
Format profile : [email protected]
Format settings : CABAC / 4 Ref Frames
Format settings, CABAC : Yes
Format settings, RefFrames : 4 frames
Codec ID : V_MPEG4/ISO/AVC
Duration : 1 h 40 min
Bit rate : 1 100 kb/s
Width : 1 280 pixels
Height : 536 pixels
Display aspect ratio : 2.40:1
Frame rate mode : Constant
Frame rate : 25.000 FPS
Color space : YUV
Chroma subsampling : 4:2:0
Bit depth : 8 bits
Scan type : Progressive
Bits/(Pixel*Frame) : 0.064
Stream size : 793 MiB (89%)
Writing library : x264 core 148 r2708 86b7198
Default : Yes
Forced : No
Color range : Limited
Color primaries : BT.709
Transfer characteristics : BT.709
Matrix coefficients : BT.709

Audio
ID : 2
Format : AAC
Format/Info : Advanced Audio Codec
Format profile : LC
Codec ID : A_AAC-2
Duration : 1 h 40 min
Bit rate : 128 kb/s
Channel(s) : 2 channels
Channel positions : Front: L R
Sampling rate : 48.0 kHz
Frame rate : 46.875 FPS (1024 SPF)
Compression mode : Lossy
Delay relative to video : -21 ms
Stream size : 92.4 MiB (10%)
Language : Polish
Default : Yes
Forced : No

Text
ID : 3
Format : UTF-8
Codec ID : S_TEXT/UTF8
Codec ID/Info : UTF-8 Plain Text
Duration : 1 h 36 min
Bit rate : 29 b/s
Count of elements : 819
Stream size : 21.0 KiB (0%)
Default : Yes
Forced : No

[collapse]
Download Link(s)

Download

Direct download files get automatically deleted after a month or so. Posted on : 03/19/2018

[collapse]
Magnet Link

Magnet

Source : The.Man.With.The.Magic.Box.2017.1080p.BluRay.x264-ROVERS-7.65 GB

[collapse]

Release Notes

Language: Polish

Subtitles: English

[collapse]

You may also like...

error: nah :p~