The Manor (2018)

R | 1h 32min | Horror | 15 May 2018 (USA)

“The Manor,” is the macabre tale of mental patient, Amy Hunter (Christina Robinson) and the horrific events that follow her release from Psychiatrist, Dr. Tryvniak (Rachel True). Amy’s mother, Jane (Tanja Melendez Lynch) feels it best to immerse her daughter in the warm, family atmosphere of Anders Manor, inviting Amy’s long lost family (Eric Lutes, Tandy Tugwell, Danielle Gulden, Michael Zuccola) to join them at the manor. The Manor, however, has deeper plans for the Hunter Family, as gatecrashers and cultists (Sully Erna, Kevin Nash, Mike Bennett) arrive as the nefarious and ancient demonic force, Aka-Mana (David Tessier) goes to work, in short order, to sew madness and reap blood.

Watch trailer

Media information

General
Format : Matroska
Format version : Version 4 / Version 2
File size : 702 MiB
Duration : 1 h 26 min
Overall bit rate : 1 130 kb/s
Movie name : The.Manor.2018.720p.WEB-DL.2CH.x264.AVC
Encoded date : UTC 2018-05-23 19:40:55
Writing application : mkvmerge v23.0.0 (‘The Bride Said No’) 32-bit
Writing library : libebml v1.3.6 + libmatroska v1.4.9

Video
ID : 1
Format : AVC
Format/Info : Advanced Video Codec
Format profile : [email protected]
Format settings : CABAC / 4 Ref Frames
Format settings, CABAC : Yes
Format settings, RefFrames : 4 frames
Codec ID : V_MPEG4/ISO/AVC
Duration : 1 h 26 min
Bit rate : 1 000 kb/s
Width : 1 280 pixels
Height : 720 pixels
Display aspect ratio : 16:9
Frame rate mode : Constant
Frame rate : 23.976 (24000/1001) FPS
Color space : YUV
Chroma subsampling : 4:2:0
Bit depth : 8 bits
Scan type : Progressive
Bits/(Pixel*Frame) : 0.045
Stream size : 621 MiB (88%)
Default : Yes
Forced : No
Color range : Limited
Color primaries : BT.709
Transfer characteristics : BT.709
Matrix coefficients : BT.709

Audio
ID : 2
Format : AAC
Format/Info : Advanced Audio Codec
Format profile : LC
Codec ID : A_AAC-2
Duration : 1 h 26 min
Bit rate : 128 kb/s
Channel(s) : 2 channels
Channel positions : Front: L R
Sampling rate : 48.0 kHz
Frame rate : 46.875 FPS (1024 SPF)
Compression mode : Lossy
Delay relative to video : -21 ms
Stream size : 79.7 MiB (11%)
Title : Stereo
Language : English
Default : Yes
Forced : No

Text
ID : 3
Format : UTF-8
Codec ID : S_TEXT/UTF8
Codec ID/Info : UTF-8 Plain Text
Duration : 1 h 25 min
Bit rate : 49 b/s
Count of elements : 1143
Stream size : 31.3 KiB (0%)
Default : Yes
Forced : No

[collapse]
Download Link(s)

Download

Direct download files get automatically deleted after a month or so. Posted on : 05/23/2018

[collapse]
Magnet Link

Magnet

Source : The.Manor.2018.1080p.AMZN.WEBRip.DDP5.1.x264-NTG-5.66 GB

[collapse]

You may also like...

error: nah :p~