The Miseducation of Cameron Post (2018)

Not Rated | 1h 31min | Drama , Romance | 18 July 2018 (France)

In 1993, a teenage girl is forced into a gay conversion therapy center by her conservative guardians.

Watch trailer

Media information

General
Format : Matroska
Format version : Version 4
File size : 752 MiB
Duration : 1 h 31 min
Overall bit rate : 1 147 kb/s
Movie name : The.Miseducation.of.Cameron.Post.2018.720p.WEB-DL.2CH.x264.AVC
Encoded date : UTC 2018-11-06 15:49:35
Writing application : mkvmerge v28.2.0 (‘The Awakening’) 32-bit
Writing library : libebml v1.3.6 + libmatroska v1.4.9

Video
ID : 3
Format : AVC
Format/Info : Advanced Video Codec
Format profile : [email protected]
Format settings : CABAC / 5 Ref Frames
Format settings, CABAC : Yes
Format settings, RefFrames : 5 frames
Codec ID : V_MPEG4/ISO/AVC
Duration : 1 h 31 min
Bit rate : 1 082 kb/s
Width : 1 280 pixels
Height : 690 pixels
Display aspect ratio : 1.85:1
Original display aspect ratio : 1.85:1
Frame rate mode : Constant
Frame rate : 23.976 (24000/1001) FPS
Color space : YUV
Chroma subsampling : 4:2:0
Bit depth : 8 bits
Scan type : Progressive
Bits/(Pixel*Frame) : 0.051
Stream size : 709 MiB (94%)
Default : Yes
Forced : No
Color range : Limited
Color primaries : BT.709
Transfer characteristics : BT.709
Matrix coefficients : BT.709

Audio
ID : 1
Format : AAC LC SBR
Commercial name : HE-AAC
Format settings : Explicit
Codec ID : A_AAC-2
Duration : 1 h 31 min
Bit rate : 64.0 kb/s
Channel(s) : 2 channels
Channel layout : L R
Sampling rate : 48.0 kHz
Frame rate : 23.438 FPS (2048 SPF)
Compression mode : Lossy
Delay relative to video : 31 ms
Stream size : 42.0 MiB (6%)
Language : English
Default : Yes
Forced : No

Text
ID : 2
Format : UTF-8
Codec ID : S_TEXT/UTF8
Codec ID/Info : UTF-8 Plain Text
Duration : 1 h 31 min
Bit rate : 52 b/s
Count of elements : 1116
Stream size : 35.2 KiB (0%)
Language : English
Default : Yes
Forced : No

[collapse]
Download Link(s)

Download

Direct download files get automatically deleted after a month or so. Posted on : 11/06/2018

[collapse]
Magnet Link

Magnet

The.Miseducation.of.Cameron.Post.2018.1080p.WEB-DL.DD5.1.H264-FGT-3.43 GB

[collapse]

You may also like...

error: nah :p~