The Mountain (2018)

1h 46min | Drama | 26 July 2019 (USA)

The story of a young man who, after losing his mother, goes to work with a doctor specializing in lobotomies and therapies.

Watch trailer

Media information

General
Format : Matroska
Format version : Version 4
File size : 529 MiB
Duration : 1 h 49 min
Overall bit rate : 678 kb/s
Movie name : The.Mountain.2018.720p.WEBRip.2CH.x265.HEVC
Encoded date : UTC 2019-10-08 10:02:31
Writing application : mkvmerge v38.0.0 (‘The Silent Type’) 32-bit
Writing library : libebml v1.3.9 + libmatroska v1.5.2

Video
ID : 1
Format : HEVC
Format/Info : High Efficiency Video Coding
Format profile : [email protected]@Main
Codec ID : V_MPEGH/ISO/HEVC
Duration : 1 h 49 min
Bit rate : 609 kb/s
Width : 960 pixels
Height : 720 pixels
Display aspect ratio : 4:3
Frame rate mode : Constant
Frame rate : 24.000 FPS
Color space : YUV
Chroma subsampling : 4:2:0
Bit depth : 8 bits
Bits/(Pixel*Frame) : 0.037
Stream size : 475 MiB (90%)
Default : Yes
Forced : No
Color range : Limited
Color primaries : BT.709
Transfer characteristics : BT.709
Matrix coefficients : BT.709

Audio
ID : 2
Format : AAC LC SBR
Commercial name : HE-AAC
Format settings : Explicit
Codec ID : A_AAC-2
Duration : 1 h 49 min
Bit rate : 66.2 kb/s
Channel(s) : 2 channels
Channel layout : L R
Sampling rate : 48.0 kHz
Frame rate : 23.438 FPS (2048 SPF)
Compression mode : Lossy
Delay relative to video : 23 ms
Stream size : 52.4 MiB (10%)
Language : English
Default : Yes
Forced : No

Text
ID : 3
Format : UTF-8
Codec ID : S_TEXT/UTF8
Codec ID/Info : UTF-8 Plain Text
Duration : 1 h 45 min
Bit rate : 13 b/s
Count of elements : 426
Stream size : 10.2 KiB (0%)
Language : English
Default : Yes
Forced : No

[collapse]
Download Link(s)

Download

Direct download files get automatically deleted after a month or so. Posted on : 10/08/2019

[collapse]
Magnet Link

Magnet

The.Mountain.2018.1080p.AMZN.WEBRip.DDP5.1.x264-NTG-5.83 GB

[collapse]

You may also like...

error: nah :p~