The Mummy (1999)

PG-13 | 2h 4min | Action, Adventure, Fantasy | 7 May 1999 (USA)

At an archaeological dig in the ancient city of Hamunaptra, an American serving in the French Foreign Legion accidentally awakens a mummy who begins to wreck havoc as he searches for the reincarnation of his long-lost love.

Watch trailer

Media information

General
Format : Matroska
Format version : Version 4
File size : 1.55 GiB
Duration : 2 h 4 min
Overall bit rate : 1 778 kb/s
Movie name : The.Mummy.1999.1080p.10bit.BluRay.8CH.x265.HEVC

Video
ID : 1
Format : HEVC
Format/Info : High Efficiency Video Coding
Format profile : Main [email protected]@Main
Codec ID : V_MPEGH/ISO/HEVC
Duration : 2 h 4 min
Bit rate : 1 500 kb/s
Width : 1 920 pixels
Height : 816 pixels
Display aspect ratio : 2.35:1
Frame rate mode : Constant
Frame rate : 23.976 (24000/1001) FPS
Color space : YUV
Chroma subsampling : 4:2:0
Bit depth : 10 bits
Bits/(Pixel*Frame) : 0.040
Stream size : 1.31 GiB (84%)
Default : Yes
Forced : No
Color range : Limited
Color primaries : BT.709
Transfer characteristics : BT.709
Matrix coefficients : BT.709

Audio
ID : 2
Format : AAC LC
Codec ID : A_AAC-2
Duration : 2 h 4 min
Bit rate : 256 kb/s
Channel(s) : 8 channels
Channel layout : C L R Ls Rs Lw Rw LFE
Sampling rate : 48.0 kHz
Frame rate : 46.875 FPS (1024 SPF)
Compression mode : Lossy
Delay relative to video : -21 ms
Stream size : 229 MiB (14%)
Language : English
Default : Yes
Forced : No

Text #1
ID : 3
Format : PGS
Muxing mode : zlib
Codec ID : S_HDMV/PGS
Duration : 1 h 55 min
Bit rate : 29.1 kb/s
Count of elements : 2806
Stream size : 24.1 MiB (2%)
Title : English
Language : English
Default : Yes
Forced : Yes

Text #2
ID : 4
Format : PGS
Muxing mode : zlib
Codec ID : S_HDMV/PGS
Duration : 1 h 55 min
Bit rate : 20.0 kb/s
Count of elements : 2028
Stream size : 16.5 MiB (1%)
Title : Spanish
Language : Spanish
Default : No
Forced : No

Text #3
ID : 5
Format : PGS
Muxing mode : zlib
Codec ID : S_HDMV/PGS
Duration : 1 h 55 min
Bit rate : 21.8 kb/s
Count of elements : 2130
Stream size : 18.0 MiB (1%)
Title : French
Language : French
Default : No
Forced : No

[collapse]
Download Link(s)

Download

Direct download files get automatically deleted after a month or so. Posted on : 04/09/2020

[collapse]
Magnet Link

Magnet

The.Mummy.1999.1080p.BluRay.x264.DTS-X.7.1-SWTYBLZ-14.88 GB

[collapse]

Media information

General
Format : Matroska
Format version : Version 4
File size : 1.06 GiB
Duration : 2 h 4 min
Overall bit rate : 1 214 kb/s
Movie name : The.Mummy.1999.720p.10bit.BluRay.6CH.x265.HEVC

Video
ID : 1
Format : HEVC
Format/Info : High Efficiency Video Coding
Format profile : Main [email protected]@Main
Codec ID : V_MPEGH/ISO/HEVC
Duration : 2 h 4 min
Bit rate : 1 000 kb/s
Width : 1 280 pixels
Height : 544 pixels
Display aspect ratio : 2.35:1
Frame rate mode : Constant
Frame rate : 23.976 (24000/1001) FPS
Color space : YUV
Chroma subsampling : 4:2:0
Bit depth : 10 bits
Bits/(Pixel*Frame) : 0.060
Stream size : 893 MiB (82%)
Default : Yes
Forced : No
Color range : Limited
Color primaries : BT.709
Transfer characteristics : BT.709
Matrix coefficients : BT.709

Audio
ID : 2
Format : AAC LC
Codec ID : A_AAC-2
Duration : 2 h 4 min
Bit rate : 192 kb/s
Channel(s) : 6 channels
Channel layout : C L R Ls Rs LFE
Sampling rate : 48.0 kHz
Frame rate : 46.875 FPS (1024 SPF)
Compression mode : Lossy
Delay relative to video : -21 ms
Stream size : 172 MiB (16%)
Language : English
Default : Yes
Forced : No

Text #1
ID : 3
Format : PGS
Muxing mode : zlib
Codec ID : S_HDMV/PGS
Duration : 1 h 55 min
Bit rate : 29.1 kb/s
Count of elements : 2806
Stream size : 24.1 MiB (2%)
Title : English
Language : English
Default : Yes
Forced : Yes

Text #2
ID : 4
Format : PGS
Muxing mode : zlib
Codec ID : S_HDMV/PGS
Duration : 1 h 55 min
Bit rate : 20.0 kb/s
Count of elements : 2028
Stream size : 16.5 MiB (2%)
Title : Spanish
Language : Spanish
Default : No
Forced : No

Text #3
ID : 5
Format : PGS
Muxing mode : zlib
Codec ID : S_HDMV/PGS
Duration : 1 h 55 min
Bit rate : 21.8 kb/s
Count of elements : 2130
Stream size : 18.0 MiB (2%)
Title : French
Language : French
Default : No
Forced : No

[collapse]
Download Link(s)

Download

Direct download files get automatically deleted after a month or so. Posted on : 04/09/2020

[collapse]
Magnet Link

Magnet

The.Mummy.1999.1080p.BluRay.x264.DTS-X.7.1-SWTYBLZ-14.88 GB

[collapse]

You may also like...

error: nah :p~