The New York Ripper (1982)

Lo squartatore di New York (original title)|Not Rated | 1h 25min | Horror, Mystery, Thriller | 31 July 1987 (USA)

A burned-out New York police detective teams up with a college psychoanalyst to track down a vicious serial killer randomly stalking and killing various young women around the city.

Watch trailer

Media information

General
Format : Matroska
Format version : Version 4
File size : 1.10 GiB
Duration : 1 h 33 min
Overall bit rate : 1 684 kb/s
Movie name : The.New.York.Ripper.1982.REMASTERED.ITALIAN.1080p.10bit.BluRay.1CH.x265.HEVC

Video
ID : 1
Format : HEVC
Format/Info : High Efficiency Video Coding
Format profile : Main [email protected]@Main
Codec ID : V_MPEGH/ISO/HEVC
Duration : 1 h 33 min
Bit rate : 1 501 kb/s
Width : 1 920 pixels
Height : 800 pixels
Display aspect ratio : 2.40:1
Frame rate mode : Constant
Frame rate : 23.976 (24000/1001) FPS
Color space : YUV
Chroma subsampling : 4:2:0
Bit depth : 10 bits
Bits/(Pixel*Frame) : 0.041
Stream size : 1 000 MiB (89%)
Default : Yes
Forced : No
Color range : Limited
Color primaries : BT.709
Transfer characteristics : BT.709
Matrix coefficients : BT.709

Audio
ID : 2
Format : AAC LC
Codec ID : A_AAC-2
Duration : 1 h 33 min
Bit rate : 181 kb/s
Channel(s) : 1 channel
Channel layout : C
Sampling rate : 48.0 kHz
Frame rate : 46.875 FPS (1024 SPF)
Compression mode : Lossy
Delay relative to video : -21 ms
Stream size : 120 MiB (11%)
Language : Italian
Default : Yes
Forced : No

Text #1
ID : 3
Format : UTF-8
Codec ID : S_TEXT/UTF8
Codec ID/Info : UTF-8 Plain Text
Duration : 1 h 30 min
Bit rate : 30 b/s
Count of elements : 621
Stream size : 19.9 KiB (0%)
Language : English
Default : Yes
Forced : No

Text #2
ID : 4
Format : UTF-8
Codec ID : S_TEXT/UTF8
Codec ID/Info : UTF-8 Plain Text
Duration : 1 h 30 min
Bit rate : 45 b/s
Count of elements : 797
Stream size : 30.2 KiB (0%)
Language : French
Default : No
Forced : No

Text #3
ID : 5
Format : UTF-8
Codec ID : S_TEXT/UTF8
Codec ID/Info : UTF-8 Plain Text
Duration : 1 h 30 min
Bit rate : 42 b/s
Count of elements : 797
Stream size : 28.2 KiB (0%)
Language : Spanish
Default : No
Forced : No

[collapse]
Download Link(s)

Download

Direct download files get automatically deleted after a month or so. Posted on : 09/15/2020

[collapse]
Magnet Link

Magnet

The.New.York.Ripper.1982.REMASTERED.1080p.BluRay.x264-CREEPSHOW-8.74 GB

[collapse]

Media information

General
Format : Matroska
Format version : Version 4
File size : 655 MiB
Duration : 1 h 33 min
Overall bit rate : 984 kb/s
Movie name : The.New.York.Ripper.1982.REMASTERED.ITALIAN.720p.10bit.BluRay.1CH.x265.HEVC

Video
ID : 1
Format : HEVC
Format/Info : High Efficiency Video Coding
Format profile : Main [email protected]@Main
Codec ID : V_MPEGH/ISO/HEVC
Duration : 1 h 33 min
Bit rate : 801 kb/s
Width : 1 280 pixels
Height : 534 pixels
Display aspect ratio : 2.40:1
Frame rate mode : Constant
Frame rate : 23.976 (24000/1001) FPS
Color space : YUV
Chroma subsampling : 4:2:0
Bit depth : 10 bits
Bits/(Pixel*Frame) : 0.049
Stream size : 533 MiB (81%)
Default : Yes
Forced : No
Color range : Limited
Color primaries : BT.709
Transfer characteristics : BT.709
Matrix coefficients : BT.709

Audio
ID : 2
Format : AAC LC
Codec ID : A_AAC-2
Duration : 1 h 33 min
Bit rate : 181 kb/s
Channel(s) : 1 channel
Channel layout : C
Sampling rate : 48.0 kHz
Frame rate : 46.875 FPS (1024 SPF)
Compression mode : Lossy
Delay relative to video : -21 ms
Stream size : 120 MiB (18%)
Language : Italian
Default : Yes
Forced : No

Text #1
ID : 3
Format : UTF-8
Codec ID : S_TEXT/UTF8
Codec ID/Info : UTF-8 Plain Text
Duration : 1 h 30 min
Bit rate : 30 b/s
Count of elements : 621
Stream size : 19.9 KiB (0%)
Language : English
Default : Yes
Forced : No

Text #2
ID : 4
Format : UTF-8
Codec ID : S_TEXT/UTF8
Codec ID/Info : UTF-8 Plain Text
Duration : 1 h 30 min
Bit rate : 45 b/s
Count of elements : 797
Stream size : 30.2 KiB (0%)
Language : French
Default : No
Forced : No

Text #3
ID : 5
Format : UTF-8
Codec ID : S_TEXT/UTF8
Codec ID/Info : UTF-8 Plain Text
Duration : 1 h 30 min
Bit rate : 42 b/s
Count of elements : 797
Stream size : 28.2 KiB (0%)
Language : Spanish
Default : No
Forced : No

[collapse]
Download Link(s)

Download

Direct download files get automatically deleted after a month or so. Posted on : 09/15/2020

[collapse]
Magnet Link

Magnet

The.New.York.Ripper.1982.REMASTERED.1080p.BluRay.x264-CREEPSHOW-8.74 GB

[collapse]

You may also like...

error: nah :p~