The Odds (2018)

Not Rated | 1h 47min | Horror | 8 February 2019 (Japan)

A young woman enlists in an underground game of pain endurance in the hope of winning the million dollar prize. She soon learns the real opponent is the man who’s running the game, as he employs horrific methods to manipulate and defeat her.

Watch trailer

Media information

General
Format : Matroska
Format version : Version 4
File size : 852 MiB
Duration : 1 h 47 min
Overall bit rate : 1 111 kb/s
Movie name : The.Odds.2019.720p.WEB-DL.2CH.x264.AVC
Encoded date : UTC 2019-06-04 09:57:28
Writing application : mkvmerge v34.0.0 (‘Sight and Seen’) 32-bit
Writing library : libebml v1.3.7 + libmatroska v1.5.0

Video
ID : 2
Format : AVC
Format/Info : Advanced Video Codec
Format profile : [email protected]
Format settings : CABAC / 5 Ref Frames
Format settings, CABAC : Yes
Format settings, Reference frames : 5 frames
Codec ID : V_MPEG4/ISO/AVC
Duration : 1 h 47 min
Bit rate : 1 046 kb/s
Width : 1 280 pixels
Height : 720 pixels
Display aspect ratio : 16:9
Frame rate mode : Constant
Frame rate : 23.976 (24000/1001) FPS
Color space : YUV
Chroma subsampling : 4:2:0
Bit depth : 8 bits
Scan type : Progressive
Bits/(Pixel*Frame) : 0.047
Stream size : 802 MiB (94%)
Default : Yes
Forced : No

Audio
ID : 3
Format : AAC LC SBR
Commercial name : HE-AAC
Format settings : Explicit
Codec ID : A_AAC-2
Duration : 1 h 47 min
Bit rate : 64.0 kb/s
Channel(s) : 2 channels
Channel layout : L R
Sampling rate : 48.0 kHz
Frame rate : 23.438 FPS (2048 SPF)
Compression mode : Lossy
Delay relative to video : 1 ms
Stream size : 49.1 MiB (6%)
Language : English
Default : Yes
Forced : No

Text
ID : 1
Format : UTF-8
Codec ID : S_TEXT/UTF8
Codec ID/Info : UTF-8 Plain Text
Duration : 1 h 42 min
Bit rate : 38 b/s
Count of elements : 1108
Stream size : 29.4 KiB (0%)
Language : English
Default : Yes
Forced : No

[collapse]
Download Link(s)

Download

Direct download files get automatically deleted after a month or so. Posted on : 06/04/2019

[collapse]
Magnet Link

Magnet

The.Odds.2018.1080p.AMZN.WEBRip.DDP5.1.x264-NTG-6.12 GB

[collapse]

You may also like...

error: nah :p~