The Passion of the Christ (2004)

R | 2h 7min | Drama | 25 February 2004 (USA)

Depicts the final twelve hours in the life of Jesus of Nazareth, on the day of his crucifixion in Jerusalem.

Watch trailer

Media information

General
Format : Matroska
Format version : Version 4
File size : 2.23 GiB
Duration : 2 h 6 min
Overall bit rate : 2 522 kb/s
Movie name : The.Passion.of.the.Christ.2004.1080p.BluRay.6CH.x265.HEVC
Encoded date : UTC 2019-01-22 17:45:59
Writing application : mkvmerge v30.1.0 (‘Forever And More’) 32-bit
Writing library : libebml v1.3.6 + libmatroska v1.4.9

Video
ID : 1
Format : HEVC
Format/Info : High Efficiency Video Coding
Format profile : [email protected]@Main
Codec ID : V_MPEGH/ISO/HEVC
Duration : 2 h 6 min
Bit rate : 2 200 kb/s
Width : 1 920 pixels
Height : 1 080 pixels
Display aspect ratio : 16:9
Frame rate mode : Constant
Frame rate : 23.976 (23976/1000) FPS
Original frame rate : 23.976 (24000/1001) FPS
Color space : YUV
Chroma subsampling : 4:2:0
Bit depth : 8 bits
Bits/(Pixel*Frame) : 0.044
Stream size : 1.94 GiB (87%)
Default : Yes
Forced : No
Color range : Limited
Color primaries : BT.709
Transfer characteristics : BT.709
Matrix coefficients : BT.709

Audio
ID : 2
Format : AAC LC
Codec ID : A_AAC-2
Duration : 2 h 6 min
Bit rate : 320 kb/s
Channel(s) : 6 channels
Channel layout : C L R Ls Rs LFE
Sampling rate : 48.0 kHz
Frame rate : 46.875 FPS (1024 SPF)
Compression mode : Lossy
Delay relative to video : -21 ms
Stream size : 290 MiB (13%)
Title : Surround
Default : Yes
Forced : No

Text #1
ID : 3
Format : UTF-8
Codec ID : S_TEXT/UTF8
Codec ID/Info : UTF-8 Plain Text
Duration : 1 h 54 min
Bit rate : 16 b/s
Count of elements : 521
Stream size : 14.0 KiB (0%)
Language : English
Default : Yes
Forced : No

Text #2
ID : 4
Format : UTF-8
Codec ID : S_TEXT/UTF8
Codec ID/Info : UTF-8 Plain Text
Duration : 1 h 57 min
Bit rate : 16 b/s
Count of elements : 499
Stream size : 14.0 KiB (0%)
Language : English
Default : No
Forced : No

Text #3
ID : 5
Format : UTF-8
Codec ID : S_TEXT/UTF8
Codec ID/Info : UTF-8 Plain Text
Duration : 1 h 51 min
Bit rate : 16 b/s
Count of elements : 519
Stream size : 13.8 KiB (0%)
Language : English
Default : No
Forced : No

[collapse]
Download Link(s)

Part01 Part02 Part03

Direct download files get automatically deleted after a month or so. Posted on : 01/23/2019

[collapse]
Magnet Link

Magnet

The.Passion.of.the.Christ.2004.1080p.BluRay.x264.DTS-FoRM-13.45 GB

[collapse]

Media information

General
Format : Matroska
Format version : Version 4
File size : 887 MiB
Duration : 2 h 6 min
Overall bit rate : 979 kb/s
Movie name : The.Passion.of.the.Christ.2004.720p.BluRay.2CH.x265.HEVC
Encoded date : UTC 2019-01-22 16:12:43
Writing application : mkvmerge v30.1.0 (‘Forever And More’) 32-bit
Writing library : libebml v1.3.6 + libmatroska v1.4.9

Video
ID : 1
Format : HEVC
Format/Info : High Efficiency Video Coding
Format profile : [email protected]@Main
Codec ID : V_MPEGH/ISO/HEVC
Duration : 2 h 6 min
Bit rate : 913 kb/s
Width : 1 280 pixels
Height : 720 pixels
Display aspect ratio : 2.40:1
Frame rate mode : Constant
Frame rate : 23.976 (24000/1001) FPS
Color space : YUV
Chroma subsampling : 4:2:0
Bit depth : 8 bits
Bits/(Pixel*Frame) : 0.041
Stream size : 826 MiB (93%)
Default : Yes
Forced : No
Color range : Limited
Color primaries : BT.709
Transfer characteristics : BT.709
Matrix coefficients : BT.709

Audio
ID : 2
Format : AAC LC
Codec ID : A_AAC-2
Duration : 2 h 6 min
Bit rate : 64.5 kb/s
Channel(s) : 2 channels
Channel layout : L R
Sampling rate : 48.0 kHz
Frame rate : 46.875 FPS (1024 SPF)
Compression mode : Lossy
Delay relative to video : -42 ms
Stream size : 58.4 MiB (7%)
Title : Stereo
Language : English
Default : Yes
Forced : No

Text #1
ID : 3
Format : ASS
Codec ID : S_TEXT/ASS
Duration : 1 h 54 min
Bit rate : 29 b/s
Count of elements : 521
Compression mode : Lossless
Stream size : 24.6 KiB (0%)
Language : English
Default : Yes
Forced : Yes

Text #2
ID : 4
Format : ASS
Codec ID : S_TEXT/ASS
Duration : 1 h 57 min
Bit rate : 28 b/s
Count of elements : 499
Compression mode : Lossless
Stream size : 24.2 KiB (0%)
Language : English
Default : No
Forced : No

Text #3
ID : 5
Format : ASS
Codec ID : S_TEXT/ASS
Duration : 1 h 51 min
Bit rate : 29 b/s
Count of elements : 519
Compression mode : Lossless
Stream size : 24.4 KiB (0%)
Language : English
Default : No
Forced : No

[collapse]
Download Link(s)

Download

Direct download files get automatically deleted after a month or so. Posted on : 01/22/2019

[collapse]
Magnet Link

Magnet

The.Passion.of.the.Christ.2004.1080p.BluRay.x264.DTS-FoRM-13.45 GB

[collapse]

You may also like...

error: nah :p~