The People vs. Larry Flynt (1996)

R | 2h 9min | Biography, Drama | 10 January 1997 (USA)

The story of a controversial pornography publisher and how he became a defender of free speech.

Watch trailer

Media information

General
Format : Matroska
Format version : Version 4
File size : 801 MiB
Duration : 2 h 9 min
Overall bit rate : 865 kb/s
Movie name : The.People.vs.Larry.Flynt.1996.720p.BluRay.2CH.x265.HEVC
Encoded date : UTC 2018-11-26 00:34:03
Writing application : mkvmerge v28.2.0 (‘The Awakening’) 32-bit
Writing library : libebml v1.3.6 + libmatroska v1.4.9

Video
ID : 1
Format : HEVC
Format/Info : High Efficiency Video Coding
Format profile : [email protected]@Main
Codec ID : V_MPEGH/ISO/HEVC
Duration : 2 h 9 min
Bit rate : 799 kb/s
Width : 1 280 pixels
Height : 532 pixels
Display aspect ratio : 2.40:1
Original display aspect ratio : 2.40:1
Frame rate mode : Constant
Frame rate : 23.976 (24000/1001) FPS
Color space : YUV
Chroma subsampling : 4:2:0
Bit depth : 8 bits
Bits/(Pixel*Frame) : 0.049
Stream size : 740 MiB (92%)
Default : Yes
Forced : No
Color range : Limited
Color primaries : BT.709
Transfer characteristics : BT.709
Matrix coefficients : BT.709

Audio
ID : 2
Format : AAC LC SBR
Commercial name : HE-AAC
Format settings : Explicit
Codec ID : A_AAC-2
Duration : 2 h 9 min
Bit rate : 64.0 kb/s
Channel(s) : 2 channels
Channel layout : L R
Sampling rate : 48.0 kHz
Frame rate : 23.438 FPS (2048 SPF)
Compression mode : Lossy
Delay relative to video : 3 ms
Stream size : 59.3 MiB (7%)
Default : Yes
Forced : No

Text
ID : 3
Format : UTF-8
Codec ID : S_TEXT/UTF8
Codec ID/Info : UTF-8 Plain Text
Duration : 2 h 6 min
Bit rate : 75 b/s
Count of elements : 1882
Stream size : 69.5 KiB (0%)
Language : English
Default : Yes
Forced : No

[collapse]
Download Link(s)

Download

Direct download files get automatically deleted after a month or so. Posted on : 11/26/2018

[collapse]
Magnet Link

Magnet

The.People.vs.Larry.Flynt.1996.1080p.BluRay.X264-AMIABLE-8.74 GB

[collapse]

You may also like...

error: nah :p~