The Possession Experiment (2016)

Not Rated | 1h 24min | Horror, Thriller | 17 November 2016 (Peru)

When a student takes on a theology project, he taps into another side that had been hidden away from him.

Watch trailer

Media information

General
Format : Matroska
Format version : Version 4
File size : 803 MiB
Duration : 1 h 24 min
Overall bit rate : 1 321 kb/s
Movie name : The.Possession.Experiment.2016.UNCUT.720p.BluRay.2CH.x264.AVC
Encoded date : UTC 2019-06-19 15:45:08
Writing application : mkvmerge v34.0.0 (‘Sight and Seen’) 32-bit
Writing library : libebml v1.3.7 + libmatroska v1.5.0

Video
ID : 3
Format : AVC
Format/Info : Advanced Video Codec
Format profile : [email protected]
Format settings : CABAC / 8 Ref Frames
Format settings, CABAC : Yes
Format settings, Reference frames : 8 frames
Codec ID : V_MPEG4/ISO/AVC
Duration : 1 h 24 min
Bit rate : 1 193 kb/s
Width : 1 280 pixels
Height : 536 pixels
Display aspect ratio : 2.40:1
Frame rate mode : Constant
Frame rate : 23.976 (24000/1001) FPS
Color space : YUV
Chroma subsampling : 4:2:0
Bit depth : 8 bits
Scan type : Progressive
Bits/(Pixel*Frame) : 0.073
Stream size : 724 MiB (90%)
Default : Yes
Forced : No

Audio
ID : 4
Format : AAC LC SBR
Commercial name : HE-AAC
Format settings : Explicit
Codec ID : A_AAC-2
Duration : 1 h 24 min
Bit rate : 128 kb/s
Channel(s) : 2 channels
Channel layout : L R
Sampling rate : 48.0 kHz
Frame rate : 23.438 FPS (2048 SPF)
Compression mode : Lossy
Delay relative to video : 43 ms
Stream size : 77.7 MiB (10%)
Language : English
Default : Yes
Forced : No

Text #1
ID : 1
Format : ASS
Codec ID : S_TEXT/ASS
Duration : 1 h 17 min
Bit rate : 93 b/s
Count of elements : 983
Compression mode : Lossless
Stream size : 52.9 KiB (0%)
Language : English
Default : Yes
Forced : No

Text #2
ID : 2
Format : UTF-8
Codec ID : S_TEXT/UTF8
Codec ID/Info : UTF-8 Plain Text
Duration : 1 h 16 min
Bit rate : 55 b/s
Count of elements : 982
Stream size : 31.2 KiB (0%)
Language : English
Default : No
Forced : No

[collapse]
Download Link(s)

Download

Direct download files get automatically deleted after a month or so. Posted on : 06/20/2019

[collapse]
Magnet Link

Magnet

The.Possession.Experiment.2016.UNCUT.1080p.BluRay.x264-GUACAMOLE-5.46 GB

[collapse]

You may also like...

error: nah :p~