The Post (2017)

PG-13 | 1h 56min | Biography, Drama, History | 12 January 2018 (USA)

A cover-up that spanned four U.S. Presidents pushed the country’s first female newspaper publisher and a hard-driving editor to join an unprecedented battle between the press and the government.

Watch trailer

Media information

General
Format : Matroska
Format version : Version 4
File size : 1.86 GiB
Duration : 1 h 55 min
Overall bit rate : 2 290 kb/s
Movie name : The.Post.2017.1080p.10bit.BluRay.8CH.x265.HEVC
Encoded date : UTC 2019-12-29 15:42:35
Writing application : mkvmerge v41.0.0 (‘Smarra’) 32-bit
Writing library : libebml v1.3.9 + libmatroska v1.5.2

Video
ID : 1
Format : HEVC
Format/Info : High Efficiency Video Coding
Format profile : Main [email protected]@Main
Codec ID : V_MPEGH/ISO/HEVC
Duration : 1 h 55 min
Bit rate : 2 020 kb/s
Width : 1 920 pixels
Height : 1 040 pixels
Display aspect ratio : 1.85:1
Frame rate mode : Constant
Frame rate : 23.976 (24000/1001) FPS
Color space : YUV
Chroma subsampling : 4:2:0
Bit depth : 10 bits
Bits/(Pixel*Frame) : 0.042
Stream size : 1.64 GiB (88%)
Language : English
Default : Yes
Forced : No

Audio
ID : 2
Format : AAC LC SBR
Commercial name : HE-AAC
Format settings : Explicit
Codec ID : A_AAC-2
Duration : 1 h 55 min
Bit rate : 265 kb/s
Channel(s) : 8 channels
Channel layout : C L R Ls Rs Lb Rb LFE
Sampling rate : 48.0 kHz
Frame rate : 23.438 FPS (2048 SPF)
Compression mode : Lossy
Delay relative to video : 31 ms
Stream size : 222 MiB (12%)
Language : English
Default : Yes
Forced : No

Text #1
ID : 3
Format : UTF-8
Codec ID : S_TEXT/UTF8
Codec ID/Info : UTF-8 Plain Text
Duration : 1 h 48 min
Bit rate : 88 b/s
Count of elements : 2171
Stream size : 70.1 KiB (0%)
Title : ENG
Language : English
Default : Yes
Forced : No

Text #2
ID : 4
Format : UTF-8
Codec ID : S_TEXT/UTF8
Codec ID/Info : UTF-8 Plain Text
Duration : 1 h 48 min
Bit rate : 93 b/s
Count of elements : 2285
Stream size : 74.1 KiB (0%)
Title : ENG SDH
Language : English
Default : No
Forced : No

[collapse]
Download Link(s)

Download

Direct download files get automatically deleted after a month or so. Posted on : 12/29/2019

[collapse]
Magnet Link

Magnet

The.Post.2017.1080p.BluRay.REMUX.AVC.DTS-HD.MA.7.1-FGT-30.77 GB

[collapse]

Media information

General
Format : Matroska
Format version : Version 4 / Version 2
File size : 1 006 MiB
Duration : 1 h 55 min
Overall bit rate : 1 212 kb/s
Movie name : The.Post.2017.720p.10bit.BluRay.6CH.x265.HEVC
Encoded date : UTC 2018-04-10 17:20:54
Writing application : mkvmerge v22.0.0 (‘At The End Of The World’) 32-bit
Writing library : libebml v1.3.5 + libmatroska v1.4.8

Video
ID : 1
Format : HEVC
Format/Info : High Efficiency Video Coding
Format profile : Main [email protected]@Main
Codec ID : V_MPEGH/ISO/HEVC
Duration : 1 h 55 min
Bit rate : 991 kb/s
Width : 1 280 pixels
Height : 688 pixels
Display aspect ratio : 1.85:1
Frame rate mode : Constant
Frame rate : 23.976 (24000/1001) FPS
Color space : YUV
Chroma subsampling : 4:2:0
Bit depth : 10 bits
Bits/(Pixel*Frame) : 0.047
Stream size : 822 MiB (82%)
Default : Yes
Forced : No

Audio
ID : 2
Format : AAC
Format/Info : Advanced Audio Codec
Format profile : HE-AAC / LC
Format settings : Explicit
Codec ID : A_AAC-2
Duration : 1 h 55 min
Bit rate : 219 kb/s
Channel(s) : 6 channels
Channel positions : Front: L C R, Side: L R, LFE
Sampling rate : 48.0 kHz / 24.0 kHz
Frame rate : 23.438 FPS (1024 SPF)
Compression mode : Lossy
Delay relative to video : 31 ms
Stream size : 182 MiB (18%)
Default : Yes
Forced : No

Text #1
ID : 3
Format : UTF-8
Codec ID : S_TEXT/UTF8
Codec ID/Info : UTF-8 Plain Text
Duration : 1 h 48 min
Bit rate : 88 b/s
Count of elements : 2171
Stream size : 70.1 KiB (0%)
Title : ENG
Language : English
Default : Yes
Forced : No

Text #2
ID : 4
Format : UTF-8
Codec ID : S_TEXT/UTF8
Codec ID/Info : UTF-8 Plain Text
Duration : 1 h 48 min
Bit rate : 93 b/s
Count of elements : 2285
Stream size : 74.1 KiB (0%)
Title : ENG SDH
Language : English
Default : No
Forced : No

[collapse]
Download Link(s)

Download

[RE-UP]-Direct download files get automatically deleted after a month or so. Posted on : 12/29/2019

[collapse]
Magnet Link

Magnet

The.Post.2017.1080p.BluRay.REMUX.AVC.DTS-HD.MA.7.1-FGT-30.77 GB

[collapse]

You may also like...

error: nah :p~