The Riot Act (2018)

PG-13 | 1h 41min | Thriller | 14 September 2018 (USA)

This period film from Director Devon Parks weaves an intersecting web of characters, all having witnessed a murder from three different vantage points. The dark past of this turn of the century town begins to uncover itself as an elaborate plot for revenge is constructed around the origins of a real life ghost story.

Watch trailer

Media information

General
Format : Matroska
Format version : Version 4
File size : 671 MiB
Duration : 1 h 41 min
Overall bit rate : 928 kb/s
Movie name : The.Riot.Act.2018.720p.WEB-DL.2CH.x265.HEVC
Encoded date : UTC 2019-10-08 10:04:14
Writing application : mkvmerge v38.0.0 (‘The Silent Type’) 32-bit
Writing library : libebml v1.3.9 + libmatroska v1.5.2

Video
ID : 1
Format : HEVC
Format/Info : High Efficiency Video Coding
Format profile : [email protected]@Main
Codec ID : V_MPEGH/ISO/HEVC
Duration : 1 h 41 min
Bit rate : 852 kb/s
Width : 1 280 pixels
Height : 536 pixels
Display aspect ratio : 2.40:1
Frame rate mode : Constant
Frame rate : 23.976 (24000/1001) FPS
Color space : YUV
Chroma subsampling : 4:2:0
Bit depth : 8 bits
Bits/(Pixel*Frame) : 0.052
Stream size : 616 MiB (92%)
Default : Yes
Forced : No
Color range : Limited
Color primaries : BT.709
Transfer characteristics : BT.709
Matrix coefficients : BT.709

Audio
ID : 2
Format : AAC LC SBR
Commercial name : HE-AAC
Format settings : Explicit
Codec ID : A_AAC-2
Duration : 1 h 41 min
Bit rate : 74.3 kb/s
Channel(s) : 2 channels
Channel layout : L R
Sampling rate : 48.0 kHz
Frame rate : 23.438 FPS (2048 SPF)
Compression mode : Lossy
Delay relative to video : 23 ms
Stream size : 53.7 MiB (8%)
Language : English
Default : Yes
Forced : No

Text
ID : 3
Format : UTF-8
Codec ID : S_TEXT/UTF8
Codec ID/Info : UTF-8 Plain Text
Duration : 1 h 40 min
Bit rate : 52 b/s
Count of elements : 1310
Stream size : 38.5 KiB (0%)
Language : English
Default : Yes
Forced : No

[collapse]
Download Link(s)

Download

Direct download files get automatically deleted after a month or so. Posted on : 10/08/2019

[collapse]
Magnet Link

Magnet

The.Riot.Act.2018.1080p.WEB-DL.DD2.0.H264-FGT-3.37 GB

[collapse]

You may also like...

error: nah :p~