The Russian Five (2018)

Not Rated | 1h 42min | Documentary, Sport | 11 April 2018 (USA)

In the late 1980s, the Detroit Red Wings worked to finally break their decades long Stanley Cup drought by extracting players from the Soviet Union, and in the process, changed the way North American hockey is played.

Watch trailer

Media information

General
Format : Matroska
Format version : Version 4
File size : 851 MiB
Duration : 1 h 38 min
Overall bit rate : 1 204 kb/s
Movie name : The.Russian.Five.2018.720p.WEB-DL.2CH.x264.AVC
Encoded date : UTC 2019-06-10 08:47:54
Writing application : mkvmerge v34.0.0 (‘Sight and Seen’) 32-bit
Writing library : libebml v1.3.7 + libmatroska v1.5.0

Video
ID : 1
Format : AVC
Format/Info : Advanced Video Codec
Format profile : [email protected]
Format settings : CABAC / 5 Ref Frames
Format settings, CABAC : Yes
Format settings, Reference frames : 5 frames
Codec ID : V_MPEG4/ISO/AVC
Duration : 1 h 38 min
Bit rate : 1 138 kb/s
Width : 1 280 pixels
Height : 720 pixels
Display aspect ratio : 16:9
Frame rate mode : Constant
Frame rate : 23.976 (24000/1001) FPS
Color space : YUV
Chroma subsampling : 4:2:0
Bit depth : 8 bits
Scan type : Progressive
Bits/(Pixel*Frame) : 0.052
Stream size : 804 MiB (95%)
Default : Yes
Forced : No

Audio
ID : 2
Format : AAC LC SBR
Commercial name : HE-AAC
Format settings : Explicit
Codec ID : A_AAC-2
Duration : 1 h 38 min
Bit rate : 64.0 kb/s
Channel(s) : 2 channels
Channel layout : L R
Sampling rate : 48.0 kHz
Frame rate : 23.438 FPS (2048 SPF)
Compression mode : Lossy
Delay relative to video : 43 ms
Stream size : 45.2 MiB (5%)
Language : English
Default : Yes
Forced : No

Text
ID : 3
Format : UTF-8
Codec ID : S_TEXT/UTF8
Codec ID/Info : UTF-8 Plain Text
Duration : 1 h 34 min
Bit rate : 107 b/s
Count of elements : 1742
Stream size : 74.6 KiB (0%)
Title : SDH
Language : English
Default : Yes
Forced : No

[collapse]
Download Link(s)

Download

Direct download files get automatically deleted after a month or so. Posted on : 06/10/2019

[collapse]
Magnet Link

Magnet

The.Russian.Five.2018.1080p.AMZN.WEBRip.DDP2.0.x264-NTb-6.51 GB

[collapse]

You may also like...

error: nah :p~