The Secret Reunion (2010)

Ui-hyeong-je (original title)|Not Rated | 1h 57min | Action, Thriller | 4 February 2010 (South Korea)

A fired South Korean agent and a deserted North Korean spy meet by chance after six years and start a business partnership, each with the intention of stealing information from the other.

Watch trailer

Media information

General
Format : Matroska
Format version : Version 4
File size : 450 MiB
Duration : 1 h 57 min
Overall bit rate : 537 kb/s
Movie name : Secret.Reunion.2010.720p.BluRay.2CH.x265.HEVC
Encoded date : UTC 2018-09-18 19:33:21
Writing application : mkvmerge v26.0.0 (‘In The Game’) 32-bit
Writing library : libebml v1.3.6 + libmatroska v1.4.9

Video
ID : 1
Format : HEVC
Format/Info : High Efficiency Video Coding
Format profile : Main [email protected]@Main
Codec ID : V_MPEGH/ISO/HEVC
Duration : 1 h 57 min
Bit rate : 487 kb/s
Width : 1 280 pixels
Height : 544 pixels
Display aspect ratio : 2.35:1
Frame rate mode : Constant
Frame rate : 23.976 (24000/1001) FPS
Color space : YUV
Chroma subsampling : 4:2:0
Bit depth : 10 bits
Bits/(Pixel*Frame) : 0.029
Stream size : 408 MiB (91%)
Default : Yes
Forced : No

Audio
ID : 2
Format : Opus
Codec ID : A_OPUS
Duration : 1 h 57 min
Bit rate : 48.0 kb/s
Channel(s) : 2 channels
Channel layout : L R
Sampling rate : 48.0 kHz
Frame rate : 50.000 FPS (960 SPF)
Compression mode : Lossy
Stream size : 40.2 MiB (9%)
Language : Korean
Default : No
Forced : No

Text
ID : 3
Format : UTF-8
Codec ID : S_TEXT/UTF8
Codec ID/Info : UTF-8 Plain Text
Duration : 1 h 52 min
Bit rate : 36 b/s
Count of elements : 1221
Stream size : 29.7 KiB (0%)
Language : English
Default : Yes
Forced : No

[collapse]
Download Link(s)

Download

Direct download files get automatically deleted after a month or so. Posted on : 09/19/2018

[collapse]
Magnet Link

Magnet

Source : The Secret Reunion (2010) NTSC Retail Eng/NLSub NLUPPER-4.4 GB

[collapse]

You may also like...

error: nah :p~