The Shasta Triangle (2019)

1h 14min | Fantasy, Sci-Fi, Thriller | 3 December 2019 (USA)

A young woman returns to her hometown to uncover the truth about her father’s disappearance. Deep in the woods, she and her childhood friends battle ancient and terrifying forces controlling the town.

Watch trailer

Media information

General
Format : Matroska
Format version : Version 4
File size : 642 MiB
Duration : 1 h 14 min
Overall bit rate : 1 210 kb/s
Movie name : The.Shasta.Triangle.2019.720p.WEB-DL.2CH.x264.AVC
Encoded date : UTC 2019-12-04 22:56:58
Writing application : mkvmerge v40.0.0 (‘Old Town Road + Pony’) 32-bit
Writing library : libebml v1.3.9 + libmatroska v1.5.2

Video
ID : 1
Format : AVC
Format/Info : Advanced Video Codec
Format profile : [email protected]
Format settings : CABAC / 4 Ref Frames
Format settings, CABAC : Yes
Format settings, Reference frames : 4 frames
Codec ID : V_MPEG4/ISO/AVC
Duration : 1 h 14 min
Bit rate : 1 100 kb/s
Width : 1 280 pixels
Height : 542 pixels
Display aspect ratio : 2.35:1
Frame rate mode : Constant
Frame rate : 23.976 (24000/1001) FPS
Color space : YUV
Chroma subsampling : 4:2:0
Bit depth : 8 bits
Scan type : Progressive
Bits/(Pixel*Frame) : 0.066
Stream size : 573 MiB (89%)
Default : Yes
Forced : No
Color range : Limited
Color primaries : BT.709
Transfer characteristics : BT.709
Matrix coefficients : BT.709

Audio
ID : 2
Format : AAC LC
Codec ID : A_AAC-2
Duration : 1 h 14 min
Bit rate : 128 kb/s
Channel(s) : 2 channels
Channel layout : L R
Sampling rate : 48.0 kHz
Frame rate : 46.875 FPS (1024 SPF)
Compression mode : Lossy
Delay relative to video : -21 ms
Stream size : 68.0 MiB (11%)
Language : English
Default : Yes
Forced : No

Text
ID : 3
Format : ASS
Codec ID : S_TEXT/ASS
Duration : 1 h 13 min
Bit rate : 127 b/s
Count of elements : 1197
Compression mode : Lossless
Stream size : 69.3 KiB (0%)
Language : English
Default : Yes
Forced : No

[collapse]
Download Link(s)

Download

Direct download files get automatically deleted after a month or so. Posted on : 12/05/2019

[collapse]
Magnet Link

Magnet

The.Shasta.Triangle.2019.1080p.AMZN.WEBRip.DDP2.0.x264-NTG-4.82 GB

[collapse]

You may also like...

error: nah :p~