The Sky Is Pink (2019)

2h 23min | Drama, Family, Romance | 11 October 2019 (USA)

It is based on the love story of a couple spanning 25 years, told through the lens of their spunky teenage daughter Aisha Chaudhary, who was diagnosed with a Pulmonary fibrosis .

Watch trailer

Media information

General
Format : Matroska
Format version : Version 4
File size : 1.22 GiB
Duration : 2 h 23 min
Overall bit rate : 1 221 kb/s
Movie name : The.Sky.Is.Pink.2019.Hindi.720p.WEB-DL.2CH.x264.AVC
Encoded date : UTC 2019-12-11 20:39:38
Writing application : mkvmerge v41.0.0 (‘Smarra’) 32-bit
Writing library : libebml v1.3.9 + libmatroska v1.5.2

Video
ID : 1
Format : AVC
Format/Info : Advanced Video Codec
Format profile : [email protected]
Format settings : CABAC / 4 Ref Frames
Format settings, CABAC : Yes
Format settings, Reference frames : 4 frames
Codec ID : V_MPEG4/ISO/AVC
Duration : 2 h 23 min
Bit rate : 1 100 kb/s
Width : 1 280 pixels
Height : 536 pixels
Display aspect ratio : 2.40:1
Frame rate mode : Constant
Frame rate : 23.976 (24000/1001) FPS
Color space : YUV
Chroma subsampling : 4:2:0
Bit depth : 8 bits
Scan type : Progressive
Bits/(Pixel*Frame) : 0.067
Stream size : 1.09 GiB (89%)
Default : Yes
Forced : No
Color range : Limited
Color primaries : BT.709
Transfer characteristics : BT.709
Matrix coefficients : BT.709

Audio
ID : 2
Format : AAC LC
Codec ID : A_AAC-2
Duration : 2 h 23 min
Bit rate : 128 kb/s
Channel(s) : 2 channels
Channel layout : L R
Sampling rate : 48.0 kHz
Frame rate : 46.875 FPS (1024 SPF)
Compression mode : Lossy
Delay relative to video : -21 ms
Stream size : 131 MiB (10%)
Language : Hindi
Default : Yes
Forced : No

Text
ID : 3
Format : ASS
Codec ID : S_TEXT/ASS
Duration : 2 h 19 min
Bit rate : 97 b/s
Count of elements : 1377
Compression mode : Lossless
Stream size : 99.1 KiB (0%)
Language : English
Default : No
Forced : No

[collapse]
Download Link(s)

Download

Direct download files get automatically deleted after a month or so. Posted on : 12/12/2019

[collapse]
Magnet Link

Magnet

The.Sky.Is.Pink.2019.1080p.WebRip.Hindi.x264.DDP.5.1.ESub-4.1 GB

[collapse]

You may also like...

error: nah :p~