The Specialist (1994)

R | 1h 50min | Action , Crime , Drama | 7 October 1994 (USA)

A woman entices a bomb expert she’s involved with into destroying the mafia that killed her family.

Watch trailer

Media information

General
Format : Matroska
Format version : Version 4
File size : 1.42 GiB
Duration : 1 h 49 min
Overall bit rate : 1 850 kb/s
Movie name : The.Specialist.1994.1080p.BluRay.6CH.x265.HEVC
Encoded date : UTC 2018-11-16 20:15:55
Writing application : mkvmerge v28.0.0 (‘Voice In My Head’) 32-bit
Writing library : libebml v1.3.6 + libmatroska v1.4.9

Video
ID : 1
Format : HEVC
Format/Info : High Efficiency Video Coding
Format profile : [email protected]@Main
Codec ID : V_MPEGH/ISO/HEVC
Duration : 1 h 49 min
Bit rate : 1 656 kb/s
Width : 1 920 pixels
Height : 1 080 pixels
Display aspect ratio : 16:9
Frame rate mode : Constant
Frame rate : 23.976 (24000/1001) FPS
Color space : YUV
Chroma subsampling : 4:2:0
Bit depth : 8 bits
Bits/(Pixel*Frame) : 0.033
Stream size : 1.27 GiB (89%)
Default : Yes
Forced : No
Color range : Limited
Color primaries : BT.709
Transfer characteristics : BT.709
Matrix coefficients : BT.709

Audio
ID : 2
Format : AAC LC
Codec ID : A_AAC-2
Duration : 1 h 49 min
Bit rate : 192 kb/s
Channel(s) : 6 channels
Channel layout : C L R Ls Rs LFE
Sampling rate : 48.0 kHz
Frame rate : 46.875 FPS (1024 SPF)
Compression mode : Lossy
Stream size : 151 MiB (10%)
Title : Surround
Language : English
Default : Yes
Forced : No

Text
ID : 3
Format : ASS
Codec ID : S_TEXT/ASS
Duration : 1 h 48 min
Bit rate : 73 b/s
Count of elements : 1131
Compression mode : Lossless
Stream size : 58.7 KiB (0%)
Language : English
Default : Yes
Forced : Yes

[collapse]
Download Link(s)

Part01 Part02

[RE-UP]-Direct download files get automatically deleted after a month or so. Posted on: 05/31/2019

[collapse]
Magnet Link

Magnet

The.Specialist.1994.1080p.BluRay.x264-SHORTBREHD-7.65 GB

[collapse]

Media information

General
Format : Matroska
Format version : Version 4
File size : 690 MiB
Duration : 1 h 49 min
Overall bit rate : 878 kb/s
Movie name : The.Specialist.1994.720p.BluRay.2CH.x265.HEVC
Encoded date : UTC 2018-11-15 10:42:31
Writing application : mkvmerge v28.0.0 (‘Voice In My Head’) 32-bit
Writing library : libebml v1.3.6 + libmatroska v1.4.9

Video
ID : 1
Format : HEVC
Format/Info : High Efficiency Video Coding
Format profile : [email protected]@Main
Codec ID : V_MPEGH/ISO/HEVC
Duration : 1 h 49 min
Bit rate : 811 kb/s
Width : 1 280 pixels
Height : 720 pixels
Display aspect ratio : 16:9
Frame rate mode : Constant
Frame rate : 23.976 (24000/1001) FPS
Color space : YUV
Chroma subsampling : 4:2:0
Bit depth : 8 bits
Bits/(Pixel*Frame) : 0.037
Stream size : 638 MiB (92%)
Default : Yes
Forced : No
Color range : Limited
Color primaries : BT.709
Transfer characteristics : BT.709
Matrix coefficients : BT.709

Audio
ID : 2
Format : AAC LC
Codec ID : A_AAC-2
Duration : 1 h 49 min
Bit rate : 64.2 kb/s
Channel(s) : 2 channels
Channel layout : L R
Sampling rate : 48.0 kHz
Frame rate : 46.875 FPS (1024 SPF)
Compression mode : Lossy
Stream size : 50.5 MiB (7%)
Title : Stereo
Language : English
Default : Yes
Forced : No

Text
ID : 3
Format : ASS
Codec ID : S_TEXT/ASS
Codec ID/Info : Advanced Sub Station Alpha
Duration : 1 h 48 min
Bit rate : 73 b/s
Count of elements : 1131
Compression mode : Lossless
Stream size : 58.7 KiB (0%)
Language : English
Default : Yes
Forced : Yes

[collapse]
Download Link(s)

Download

[RE-UP]-Direct download files get automatically deleted after a month or so. Posted on: 05/31/2019

[collapse]
Magnet Link

Magnet

The.Specialist.1994.1080p.BluRay.x264-SHORTBREHD-7.65 GB

[collapse]

You may also like...

error: nah :p~