The Surrounding Game (2018)

1h 37min | Documentary, Drama, History | 15 February 2018 (USA)

Go is the oldest game still played in its original form. In east Asia, it is hailed as one of mankind’s greatest cultural achievements and considered both ancient art and national sport. At the very top, an elite cadre of professional Go players battles for dominance, broadcast to millions of fans – and remaining virtually unknown to the West. Now, for the first time, a small but determined band of American players enters the fray, launching their own professional system and struggling desperately to bring Go into the mainstream. Everything depends on the genius of the young competitors as they explore the endless complexities of the game. In the end, ‘The Surrounding Game’ is a story of obsession: a search for meaning beneath the patterns.

Watch trailer

Media information

General
Format : Matroska
Format version : Version 4 / Version 2
File size : 767 MiB
Duration : 1 h 37 min
Overall bit rate : 1 098 kb/s
Movie name : The.Surrounding.Game.2018.720p.WEB-DL.2CH.x264.AVC
Encoded date : UTC 2018-08-30 19:22:55
Writing application : mkvmerge v26.0.0 (‘In The Game’) 32-bit
Writing library : libebml v1.3.6 + libmatroska v1.4.9

Video
ID : 1
Format : AVC
Format/Info : Advanced Video Codec
Format profile : [email protected]
Format settings : CABAC / 4 Ref Frames
Format settings, CABAC : Yes
Format settings, RefFrames : 4 frames
Codec ID : V_MPEG4/ISO/AVC
Duration : 1 h 37 min
Bit rate : 1 000 kb/s
Width : 1 280 pixels
Height : 720 pixels
Display aspect ratio : 16:9
Frame rate mode : Constant
Frame rate : 23.976 (24000/1001) FPS
Color space : YUV
Chroma subsampling : 4:2:0
Bit depth : 8 bits
Scan type : Progressive
Bits/(Pixel*Frame) : 0.045
Stream size : 675 MiB (88%)
Default : Yes
Forced : No
Color range : Limited
Color primaries : BT.709
Transfer characteristics : BT.709
Matrix coefficients : BT.709

Audio
ID : 2
Format : AAC
Format/Info : Advanced Audio Codec
Format profile : HE-AAC / LC
Format settings : NBC
Codec ID : A_AAC-5
Duration : 1 h 37 min
Bit rate : 128 kb/s
Channel(s) : 2 channels
Channel positions : Front: L R
Sampling rate : 48.0 kHz / 24.0 kHz
Frame rate : 23.438 FPS (1024 SPF)
Compression mode : Lossy
Delay relative to video : -105 ms
Stream size : 89.4 MiB (12%)
Language : English
Default : Yes
Forced : No

Text #1
ID : 3
Format : ASS
Codec ID : S_TEXT/ASS
Codec ID/Info : Advanced Sub Station Alpha
Duration : 1 h 33 min
Bit rate : 25 b/s
Count of elements : 302
Compression mode : Lossless
Stream size : 17.5 KiB (0%)
Language : English
Default : No
Forced : No

Text #2
ID : 4
Format : ASS
Codec ID : S_TEXT/ASS
Codec ID/Info : Advanced Sub Station Alpha
Duration : 1 h 33 min
Bit rate : 114 b/s
Count of elements : 1281
Compression mode : Lossless
Stream size : 78.6 KiB (0%)
Language : English
Default : No
Forced : No

Text #3
ID : 5
Format : ASS
Codec ID : S_TEXT/ASS
Codec ID/Info : Advanced Sub Station Alpha
Duration : 1 h 34 min
Bit rate : 97 b/s
Count of elements : 1085
Compression mode : Lossless
Stream size : 68.0 KiB (0%)
Language : Korean
Default : No
Forced : No

Text #4
ID : 6
Format : ASS
Codec ID : S_TEXT/ASS
Codec ID/Info : Advanced Sub Station Alpha
Duration : 1 h 34 min
Bit rate : 99 b/s
Count of elements : 1116
Compression mode : Lossless
Stream size : 69.1 KiB (0%)
Language : Chinese
Default : No
Forced : No

Text #5
ID : 7
Format : ASS
Codec ID : S_TEXT/ASS
Codec ID/Info : Advanced Sub Station Alpha
Duration : 1 h 34 min
Bit rate : 92 b/s
Count of elements : 1189
Compression mode : Lossless
Stream size : 64.6 KiB (0%)
Language : Chinese
Default : No
Forced : No

[collapse]
Download Link(s)

Download

Direct download files get automatically deleted after a month or so. Posted on : 08/30/2018

[collapse]
Magnet Link

Magnet

Source : The.Surrounding.Game.2018.1080p.NF.WEBRip.DD5.1.x264-AJP69-4.01 GB

[collapse]

You may also like...

error: nah :p~