The Terrible Two (2018)

1h 24min | Horror, Thriller | 6 March 2018 (USA)

This horror/paranormal thriller follows the lives of Albert and Rose Poe over the course of 4 days that happens to include the one year anniversary of their 5 and 6 year old daughters deaths. The day the girls died was their birthdays too. We soon learn there is more to the girls deaths and the house the Poe’s thought was their safe haven.

Watch trailer

Media information

General
Format : Matroska
Format version : Version 4 / Version 2
File size : 376 MiB
Duration : 1 h 23 min
Overall bit rate : 626 kb/s
Movie name : The.Terrible.Two.2018.720p.WEB-DL.2CH.x265.HEVC
Encoded date : UTC 2018-03-11 17:25:53
Writing application : mkvmerge v21.0.0 (‘Tardigrades Will Inherit The Earth’) 32-bit
Writing library : libebml v1.3.5 + libmatroska v1.4.8

Video
ID : 1
Format : HEVC
Format/Info : High Efficiency Video Coding
Format profile : [email protected]@Main
Codec ID : V_MPEGH/ISO/HEVC
Duration : 1 h 23 min
Bit rate : 494 kb/s
Width : 1 280 pixels
Height : 720 pixels
Display aspect ratio : 16:9
Frame rate mode : Constant
Frame rate : 23.976 (24000/1001) FPS
Color space : YUV
Chroma subsampling : 4:2:0
Bit depth : 8 bits
Bits/(Pixel*Frame) : 0.022
Stream size : 297 MiB (79%)
Writing library : x265 2.5+27-0e168bdeb48b:[Linux][GCC 6.4.0][64 bit] 8bit+10bit+12bit
Language : English
Default : Yes
Forced : No

Audio
ID : 2
Format : AAC
Format/Info : Advanced Audio Codec
Format profile : LC
Codec ID : A_AAC-2
Duration : 1 h 23 min
Bit rate : 129 kb/s
Channel(s) : 2 channels
Channel positions : Front: L R
Sampling rate : 48.0 kHz
Frame rate : 46.875 FPS (1024 SPF)
Compression mode : Lossy
Delay relative to video : -42 ms
Stream size : 77.6 MiB (21%)
Language : English
Default : Yes
Forced : No

Text
ID : 3
Format : UTF-8
Codec ID : S_TEXT/UTF8
Codec ID/Info : UTF-8 Plain Text
Duration : 1 h 19 min
Bit rate : 50 b/s
Count of elements : 1051
Stream size : 29.6 KiB (0%)
Default : Yes
Forced : No

[collapse]
Download Link(s)

Download

Direct download files get automatically deleted after a month or so. Posted on : 03/11/2018

[collapse]
Magnet Link

Magnet

Source : The.Terrible.Two.2018.1080p.WEB-DL.DD5.1.H264-FGT-3.30 GB

[collapse]

You may also like...

error: nah :p~