The Town (2010)

R | 2h 5min | Crime, Drama, Thriller | 17 September 2010 (USA)

As he plans his next job, a longtime thief tries to balance his feelings for a bank manager connected to one of his earlier heists, as well as the F.B.I. Agent looking to bring him and his crew down.

Watch trailer

Media information

General
Format : Matroska
Format version : Version 4 / Version 2
File size : 899 MiB
Duration : 2 h 30 min
Overall bit rate : 835 kb/s
Movie name : The.Town.EXTENDED.2010.720p.BrRip.x264
Encoded date : UTC 2018-03-03 15:38:27
Writing application : mkvmerge v21.0.0 (‘Tardigrades Will Inherit The Earth’) 32-bit
Writing library : libebml v1.3.5 + libmatroska v1.4.8

Video
ID : 1
Format : AVC
Format/Info : Advanced Video Codec
Format profile : [email protected]
Format settings : CABAC / 4 Ref Frames
Format settings, CABAC : Yes
Format settings, RefFrames : 4 frames
Codec ID : V_MPEG4/ISO/AVC
Duration : 2 h 30 min
Bit rate : 741 kb/s
Width : 1 280 pixels
Height : 528 pixels
Display aspect ratio : 2.40:1
Frame rate mode : Constant
Frame rate : 23.976 (24000/1001) FPS
Color space : YUV
Chroma subsampling : 4:2:0
Bit depth : 8 bits
Scan type : Progressive
Bits/(Pixel*Frame) : 0.046
Stream size : 798 MiB (89%)
Writing library : x264 core 120 r2164 da19765
Default : Yes
Forced : No

Audio
ID : 2
Format : AAC
Format/Info : Advanced Audio Codec
Format profile : LC
Codec ID : A_AAC-2
Duration : 2 h 30 min
Bit rate : 92.0 kb/s
Channel(s) : 2 channels
Channel positions : Front: L R
Sampling rate : 48.0 kHz
Frame rate : 46.875 FPS (1024 SPF)
Compression mode : Lossy
Delay relative to video : -83 ms
Stream size : 99.1 MiB (11%)
Default : Yes
Forced : No

Text
ID : 3
Format : UTF-8
Codec ID : S_TEXT/UTF8
Codec ID/Info : UTF-8 Plain Text
Duration : 2 h 24 min
Bit rate : 60 b/s
Count of elements : 1827
Stream size : 64.4 KiB (0%)
Default : Yes
Forced : No

[collapse]
Download Link(s)

Download

[RE-UP] Direct download files get automatically deleted after a month or so. Posted on : 03/04/2018

[collapse]
Magnet Link

Magnet

Source : The.Town.2010.EXTENDED.1080p.Bluray.x264-CBGB-10.93 GB

[collapse]

You may also like...

error: nah :p~