The Untouchables (1987)

R | 1h 59min | Crime, Drama, Thriller | 3 June 1987 (USA)

During the era of Prohibition in the United States, federal agent Eliot Ness sets out to stop ruthless Chicago gangster Al Capone, and because of rampant corruption, assembles a small, hand-picked team to help him.

Watch trailer

Media information

General
Format : Matroska
Format version : Version 4
File size : 1.05 GiB
Duration : 1 h 59 min
Overall bit rate : 1 257 kb/s
Movie name : The.Untouchables.1987.The.Untouchables.1987.720p.BluRay.2CH.x264.AVC
Encoded date : UTC 2019-01-29 16:52:18
Writing application : mkvmerge v30.1.0 (‘Forever And More’) 32-bit
Writing library : libebml v1.3.6 + libmatroska v1.4.9

Video
ID : 1
Format : AVC
Format/Info : Advanced Video Codec
Format profile : [email protected]
Format settings : CABAC / 9 Ref Frames
Format settings, CABAC : Yes
Format settings, RefFrames : 9 frames
Codec ID : V_MPEG4/ISO/AVC
Duration : 1 h 59 min
Bit rate : 1 155 kb/s
Width : 1 280 pixels
Height : 540 pixels
Display aspect ratio : 2.40:1
Frame rate mode : Constant
Frame rate : 23.976 (24000/1001) FPS
Color space : YUV
Chroma subsampling : 4:2:0
Bit depth : 8 bits
Scan type : Progressive
Bits/(Pixel*Frame) : 0.070
Stream size : 986 MiB (92%)
Default : Yes
Forced : No

Audio
ID : 2
Format : AAC LC SBR
Commercial name : HE-AAC
Format settings : Explicit
Codec ID : A_AAC-2
Duration : 1 h 59 min
Bit rate : 99.6 kb/s
Channel(s) : 2 channels
Channel layout : L R
Sampling rate : 48.0 kHz
Frame rate : 23.438 FPS (2048 SPF)
Compression mode : Lossy
Delay relative to video : 31 ms
Stream size : 85.1 MiB (8%)
Language : English
Default : Yes
Forced : No

Text #1
ID : 3
Format : ASS
Codec ID : S_TEXT/ASS
Codec ID/Info : Advanced Sub Station Alpha
Duration : 1 h 55 min
Bit rate : 78 b/s
Count of elements : 971
Compression mode : Lossless
Stream size : 66.5 KiB (0%)
Title : English
Language : English
Default : Yes
Forced : No

Text #2
ID : 4
Format : ASS
Codec ID : S_TEXT/ASS
Codec ID/Info : Advanced Sub Station Alpha
Duration : 1 h 55 min
Bit rate : 56 b/s
Count of elements : 678
Compression mode : Lossless
Stream size : 47.7 KiB (0%)
Title : Swedish
Language : Swedish
Default : No
Forced : No

Text #3
ID : 5
Format : ASS
Codec ID : S_TEXT/ASS
Codec ID/Info : Advanced Sub Station Alpha
Duration : 1 h 55 min
Bit rate : 75 b/s
Count of elements : 993
Compression mode : Lossless
Stream size : 64.0 KiB (0%)
Title : Finnish
Language : Finnish
Default : No
Forced : No

Text #4
ID : 6
Format : ASS
Codec ID : S_TEXT/ASS
Codec ID/Info : Advanced Sub Station Alpha
Duration : 1 h 55 min
Bit rate : 71 b/s
Count of elements : 970
Compression mode : Lossless
Stream size : 60.8 KiB (0%)
Title : Norwegian
Language : Norwegian
Default : No
Forced : No

Text #5
ID : 7
Format : ASS
Codec ID : S_TEXT/ASS
Codec ID/Info : Advanced Sub Station Alpha
Duration : 1 h 55 min
Bit rate : 79 b/s
Count of elements : 992
Compression mode : Lossless
Stream size : 67.4 KiB (0%)
Title : Danish
Language : Danish
Default : No
Forced : No

Text #6
ID : 8
Format : ASS
Codec ID : S_TEXT/ASS
Codec ID/Info : Advanced Sub Station Alpha
Duration : 1 h 55 min
Bit rate : 74 b/s
Count of elements : 985
Compression mode : Lossless
Stream size : 62.9 KiB (0%)
Title : German
Language : German
Default : No
Forced : No

Text #7
ID : 9
Format : ASS
Codec ID : S_TEXT/ASS
Codec ID/Info : Advanced Sub Station Alpha
Duration : 1 h 55 min
Bit rate : 63 b/s
Count of elements : 778
Compression mode : Lossless
Stream size : 53.5 KiB (0%)
Title : Dutch
Language : Dutch
Default : No
Forced : No

Text #8
ID : 10
Format : ASS
Codec ID : S_TEXT/ASS
Codec ID/Info : Advanced Sub Station Alpha
Duration : 1 h 55 min
Bit rate : 82 b/s
Count of elements : 993
Compression mode : Lossless
Stream size : 69.8 KiB (0%)
Title : Romanian
Language : Romanian
Default : No
Forced : No

Text #9
ID : 11
Format : ASS
Codec ID : S_TEXT/ASS
Codec ID/Info : Advanced Sub Station Alpha
Duration : 1 h 55 min
Bit rate : 83 b/s
Count of elements : 993
Compression mode : Lossless
Stream size : 70.2 KiB (0%)
Title : Czech
Language : Czech
Default : No
Forced : No

Text #10
ID : 12
Format : ASS
Codec ID : S_TEXT/ASS
Codec ID/Info : Advanced Sub Station Alpha
Duration : 1 h 55 min
Bit rate : 79 b/s
Count of elements : 993
Compression mode : Lossless
Stream size : 67.1 KiB (0%)
Title : Polish
Language : Polish
Default : No
Forced : No

Text #11
ID : 13
Format : ASS
Codec ID : S_TEXT/ASS
Codec ID/Info : Advanced Sub Station Alpha
Duration : 1 h 55 min
Bit rate : 85 b/s
Count of elements : 993
Compression mode : Lossless
Stream size : 72.1 KiB (0%)
Title : Turkish
Language : Turkish
Default : No
Forced : No

[collapse]
Download Link(s)

Download

Direct download files get automatically deleted after a month or so. Posted on : 01/29/2019

[collapse]
Magnet Link

Magnet

The.Untouchables.1987.1080p.BluRay.x264.DTS-CLASSiC- 7.95 GB

[collapse]

You may also like...

error: nah :p~