The Vanishing of Sidney Hall (2017)

Sidney Hall (original title)|R | 1h 59min | Drama, Mystery | 2 March 2018 (USA)

Sidney Hall finds accidental success and unexpected love at an early age, then disappears without a trace.

Watch trailer

Media information

General
Format : Matroska
Format version : Version 4 / Version 2
File size : 974 MiB
Duration : 2 h 0 min
Overall bit rate : 1 130 kb/s
Movie name : The.Vanishing.of.Sidney.Hall.2017.720p.WEB-DL.2CH.x264.AVC
Encoded date : UTC 2018-03-04 21:02:58
Writing application : mkvmerge v21.0.0 (‘Tardigrades Will Inherit The Earth’) 32-bit
Writing library : libebml v1.3.5 + libmatroska v1.4.8

Video
ID : 1
Format : AVC
Format/Info : Advanced Video Codec
Format profile : [email protected]
Format settings : CABAC / 4 Ref Frames
Format settings, CABAC : Yes
Format settings, RefFrames : 4 frames
Codec ID : V_MPEG4/ISO/AVC
Duration : 2 h 0 min
Bit rate : 1 000 kb/s
Width : 1 280 pixels
Height : 530 pixels
Display aspect ratio : 2.40:1
Original display aspect ratio : 2.40:1
Frame rate mode : Constant
Frame rate : 23.976 (24000/1001) FPS
Color space : YUV
Chroma subsampling : 4:2:0
Bit depth : 8 bits
Scan type : Progressive
Bits/(Pixel*Frame) : 0.061
Stream size : 862 MiB (88%)
Writing library : x264 core 148 r2708 86b7198
Default : Yes
Forced : No
Color range : Limited
Color primaries : BT.709
Transfer characteristics : BT.709
Matrix coefficients : BT.709

Audio
ID : 2
Format : AAC
Format/Info : Advanced Audio Codec
Format profile : LC
Codec ID : A_AAC-2
Duration : 2 h 0 min
Bit rate : 128 kb/s
Channel(s) : 2 channels
Channel positions : Front: L R
Sampling rate : 48.0 kHz
Frame rate : 46.875 FPS (1024 SPF)
Compression mode : Lossy
Delay relative to video : -21 ms
Stream size : 110 MiB (11%)
Language : English
Default : Yes
Forced : No

Text
ID : 3
Format : UTF-8
Codec ID : S_TEXT/UTF8
Codec ID/Info : UTF-8 Plain Text
Duration : 1 h 53 min
Bit rate : 67 b/s
Count of elements : 1887
Stream size : 56.4 KiB (0%)
Default : Yes
Forced : No

[collapse]
Download Link(s)

Download

Direct download files get automatically deleted after a month or so. Posted on : 03/05/2018

[collapse]
Magnet Link

Magnet

Source : The.Vanishing.of.Sidney.Hall.2017.1080p.WEB-DL.DD5.1.H264-FGT-4.21 GB

[collapse]

You may also like...

error: nah :p~