The Wind (2018)

R | 1h 26min | Horror, Western | 5 April 2019 (USA)

A plains-woman faces the harshness and isolation of the untamed land in the Western frontier of the late 1800s.

Watch trailer

Media information

General
Format : Matroska
Format version : Version 4
File size : 490 MiB
Duration : 1 h 27 min
Overall bit rate : 779 kb/s
Movie name : The.Wind.2018.720p.WEBRip.2CH.x265.HEVC
Encoded date : UTC 2019-04-05 18:09:00
Writing application : mkvmerge v32.0.0 (‘Astral Progressions’) 32-bit
Writing library : libebml v1.3.7 + libmatroska v1.5.0

Video
ID : 1
Format : HEVC
Format/Info : High Efficiency Video Coding
Format profile : [email protected]@Main
Codec ID : V_MPEGH/ISO/HEVC
Duration : 1 h 27 min
Bit rate : 701 kb/s
Width : 1 280 pixels
Height : 536 pixels
Display aspect ratio : 2.40:1
Frame rate mode : Constant
Frame rate : 24.000 FPS
Color space : YUV
Chroma subsampling : 4:2:0
Bit depth : 8 bits
Bits/(Pixel*Frame) : 0.043
Stream size : 441 MiB (90%)
Default : Yes
Forced : No

Audio
ID : 2
Format : AAC LC SBR
Commercial name : HE-AAC
Format settings : Explicit
Codec ID : A_AAC-2
Duration : 1 h 27 min
Bit rate : 75.2 kb/s
Channel(s) : 2 channels
Channel layout : L R
Sampling rate : 48.0 kHz
Frame rate : 23.438 FPS (2048 SPF)
Compression mode : Lossy
Delay relative to video : 23 ms
Stream size : 47.3 MiB (10%)
Language : English
Default : Yes
Forced : No

Text
ID : 3
Format : UTF-8
Codec ID : S_TEXT/UTF8
Codec ID/Info : UTF-8 Plain Text
Duration : 1 h 16 min
Bit rate : 19 b/s
Count of elements : 444
Stream size : 10.8 KiB (0%)
Language : English
Default : Yes
Forced : No

[collapse]
Download Link(s)

Download

Direct download files get automatically deleted after a month or so. Posted on : 04/05/2019

[collapse]
Magnet Link

Magnet

The.Wind.2018.1080p.AMZN.WEBRip.DDP5.1.x264-NTG-3.61 GB

[collapse]

You may also like...

error: nah :p~