The Witch (2015)

The VVitch: A New-England Folktale (original title)|R | 1h 32min | Horror, Mystery | 19 February 2016 (USA)

A family in 1630s New England is torn apart by the forces of witchcraft, black magic and possession.

Watch trailer

Media information

General
Format : Matroska
Format version : Version 4
File size : 601 MiB
Duration : 1 h 32 min
Overall bit rate : 909 kb/s
Movie name : The.Witch.2015.720p.BluRay.2CH.x265.HEVC
Encoded date : UTC 2018-12-01 18:38:42
Writing application : mkvmerge v29.0.0 (‘Like It Or Not’) 32-bit
Writing library : libebml v1.3.6 + libmatroska v1.4.9

Video
ID : 1
Format : HEVC
Format/Info : High Efficiency Video Coding
Format profile : [email protected]@Main
Codec ID : V_MPEGH/ISO/HEVC
Duration : 1 h 32 min
Bit rate : 843 kb/s
Width : 1 196 pixels
Height : 720 pixels
Display aspect ratio : 5:3
Original display aspect ratio : 5:3
Frame rate mode : Constant
Frame rate : 23.976 (24000/1001) FPS
Color space : YUV
Chroma subsampling : 4:2:0
Bit depth : 8 bits
Bits/(Pixel*Frame) : 0.041
Stream size : 557 MiB (93%)
Default : Yes
Forced : No
Color range : Limited
Color primaries : BT.709
Transfer characteristics : BT.709
Matrix coefficients : BT.709

Audio
ID : 2
Format : AAC LC SBR
Commercial name : HE-AAC
Format settings : Explicit
Codec ID : A_AAC-2
Duration : 1 h 32 min
Bit rate : 64.0 kb/s
Channel(s) : 2 channels
Channel layout : L R
Sampling rate : 48.0 kHz
Frame rate : 23.438 FPS (2048 SPF)
Compression mode : Lossy
Delay relative to video : 3 ms
Stream size : 42.3 MiB (7%)
Default : Yes
Forced : No

Text
ID : 3
Format : UTF-8
Codec ID : S_TEXT/UTF8
Codec ID/Info : UTF-8 Plain Text
Duration : 1 h 28 min
Bit rate : 42 b/s
Count of elements : 953
Stream size : 27.7 KiB (0%)
Language : English
Default : Yes
Forced : No

[collapse]
Download Link(s)

Download

Direct download files get automatically deleted after a month or so. Posted on : 12/01/2018

[collapse]
Magnet Link

Magnet

The.Witch.2015.1080p.BluRay.x264-DRONES-6.55 GB

[collapse]

You may also like...

error: nah :p~