The Women on the 6th Floor (2010)

Les femmes du 6e étage (original title)|Not Rated | 1h 42min | Comedy | 7 October 2011 (USA)

In 1960s Paris, a conservative couple’s lives are turned upside down by two Spanish maids.

Watch trailer

Media information

General
Format : Matroska
Format version : Version 4
File size : 951 MiB
Duration : 1 h 41 min
Overall bit rate : 1 303 kb/s
Movie name : The.Women.on.the.6th.Floor.2010.720p.BluRay.2CH.x264.AVC
Encoded date : UTC 2019-02-13 11:15:19
Writing application : mkvmerge v31.0.0 (‘Dolores In A Shoestand’) 32-bit
Writing library : libebml v1.3.6 + libmatroska v1.4.9

Video
ID : 2
Format : AVC
Format/Info : Advanced Video Codec
Format profile : [email protected]
Format settings : CABAC / 8 Ref Frames
Format settings, CABAC : Yes
Format settings, RefFrames : 8 frames
Codec ID : V_MPEG4/ISO/AVC
Duration : 1 h 41 min
Bit rate : 1 202 kb/s
Width : 1 280 pixels
Height : 690 pixels
Display aspect ratio : 1.85:1
Frame rate mode : Constant
Frame rate : 25.000 FPS
Color space : YUV
Chroma subsampling : 4:2:0
Bit depth : 8 bits
Scan type : Progressive
Bits/(Pixel*Frame) : 0.054
Stream size : 876 MiB (92%)
Default : Yes
Forced : No

Audio
ID : 3
Format : AAC LC SBR
Commercial name : HE-AAC
Format settings : Explicit
Codec ID : A_AAC-2
Duration : 1 h 41 min
Bit rate : 100.0 kb/s
Channel(s) : 2 channels
Channel layout : L R
Sampling rate : 48.0 kHz
Frame rate : 23.438 FPS (2048 SPF)
Compression mode : Lossy
Delay relative to video : 43 ms
Stream size : 72.9 MiB (8%)
Language : French
Default : Yes
Forced : No

Text
ID : 1
Format : UTF-8
Codec ID : S_TEXT/UTF8
Codec ID/Info : UTF-8 Plain Text
Duration : 1 h 41 min
Bit rate : 49 b/s
Count of elements : 1528
Stream size : 37.1 KiB (0%)
Language : English
Default : Yes
Forced : No

[collapse]
Download Link(s)

Download

Direct download files get automatically deleted after a month or so. Posted on : 02/13/2019

[collapse]
Magnet Link

Magnet

The.Women.on.the.6th.Floor.2010.720p.BluRay-CRiSC-950MB

[collapse]

You may also like...

error: nah :p~