They Shall Not Grow Old (2018)

R | 1h 39min | Documentary, History, War | 9 November 2018 (UK)

A documentary about World War I with never-before-seen footage to commemorate the centennial of the end of the war.

Watch trailer

Media information

General
Format : Matroska
Format version : Version 4
File size : 602 MiB
Duration : 1 h 39 min
Overall bit rate : 848 kb/s
Movie name : They.Shall.Not.Grow.Old.2018.LIMITED.720p.BluRay.2CH.x265.HEVC
Encoded date : UTC 2018-12-17 21:00:14
Writing application : mkvmerge v29.0.0 (‘Like It Or Not’) 32-bit
Writing library : libebml v1.3.6 + libmatroska v1.4.9

Video
ID : 2
Format : HEVC
Format/Info : High Efficiency Video Coding
Format profile : [email protected]@Main
Codec ID : V_MPEGH/ISO/HEVC
Duration : 1 h 39 min
Bit rate : 782 kb/s
Width : 1 280 pixels
Height : 692 pixels
Display aspect ratio : 1.85:1
Frame rate mode : Constant
Frame rate : 23.976 (24000/1001) FPS
Color space : YUV
Chroma subsampling : 4:2:0
Bit depth : 8 bits
Bits/(Pixel*Frame) : 0.037
Stream size : 555 MiB (92%)
Default : Yes
Forced : No
Color range : Limited
Color primaries : BT.709
Transfer characteristics : BT.709
Matrix coefficients : BT.709

Audio
ID : 3
Format : AAC LC SBR
Commercial name : HE-AAC
Format settings : Explicit
Codec ID : A_AAC-2
Duration : 1 h 39 min
Bit rate : 64.0 kb/s
Channel(s) : 2 channels
Channel layout : L R
Sampling rate : 48.0 kHz
Frame rate : 23.438 FPS (2048 SPF)
Compression mode : Lossy
Delay relative to video : -4 ms
Stream size : 45.5 MiB (8%)
Language : English
Default : Yes
Forced : No

Text
ID : 1
Format : UTF-8
Codec ID : S_TEXT/UTF8
Codec ID/Info : UTF-8 Plain Text
Duration : 1 h 39 min
Bit rate : 117 b/s
Count of elements : 1785
Stream size : 85.8 KiB (0%)
Language : English
Default : Yes
Forced : No

[collapse]
Download Link(s)

Download

Direct download files get automatically deleted after a month or so. Posted on : 12/17/2018

[collapse]
Magnet Link

Magnet

They.Shall.Not.Grow.Old.2018.LiMiTED.1080p.BluRay.x264-CADAVER-7.66 GB

[collapse]

You may also like...

error: nah :p~