Top Gun (1986)

PG | 1h 50min | Action, Drama, Romance | 16 May 1986 (USA)

As students at the United States Navy’s elite fighter weapons school compete to be best in the class, one daring young pilot learns a few things from a civilian instructor that are not taught in the classroom.

Watch trailer

Media information

General
Format : Matroska
Format version : Version 4
File size : 1.44 GiB
Duration : 1 h 49 min
Overall bit rate : 1 887 kb/s
Movie name : Top.Gun.1986.Special.Collector’s.Edition.1080p.10bit.BluRay.8CH.x265.HEVC
Encoded date : UTC 2019-07-21 15:56:00
Writing application : mkvmerge v35.0.0 (‘All The Love In The World’) 32-bit
Writing library : libebml v1.3.9 + libmatroska v1.5.2

Video
ID : 1
Format : HEVC
Format/Info : High Efficiency Video Coding
Format profile : Main [email protected]@Main
Codec ID : V_MPEGH/ISO/HEVC
Duration : 1 h 49 min
Bit rate : 1 473 kb/s
Width : 1 920 pixels
Height : 800 pixels
Display aspect ratio : 2.40:1
Frame rate mode : Constant
Frame rate : 23.976 (24000/1001) FPS
Color space : YUV
Chroma subsampling : 4:2:0
Bit depth : 10 bits
Bits/(Pixel*Frame) : 0.040
Stream size : 1.13 GiB (78%)
Language : English
Default : Yes
Forced : No

Audio
ID : 2
Format : AAC LC
Codec ID : A_AAC-2
Duration : 1 h 49 min
Bit rate : 301 kb/s
Channel(s) : 8 channels
Channel layout : C L R Ls Rs Lb Rb LFE
Sampling rate : 48.0 kHz
Frame rate : 46.875 FPS (1024 SPF)
Compression mode : Lossy
Delay relative to video : 9 ms
Stream size : 236 MiB (16%)
Language : English
Default : Yes
Forced : No

Text #1
ID : 3
Format : PGS
Muxing mode : zlib
Codec ID : S_HDMV/PGS
Duration : 1 h 40 min
Bit rate : 38.7 kb/s
Count of elements : 2782
Stream size : 27.8 MiB (2%)
Language : English
Default : No
Forced : No

Text #2
ID : 4
Format : VobSub
Muxing mode : zlib
Codec ID : S_VOBSUB
Duration : 1 h 40 min
Bit rate : 10.3 kb/s
Count of elements : 1391
Stream size : 7.42 MiB (1%)
Language : English
Default : No
Forced : No

Text #3
ID : 5
Format : VobSub
Muxing mode : zlib
Codec ID : S_VOBSUB
Duration : 1 h 48 min
Bit rate : 3 736 b/s
Count of elements : 1256
Stream size : 2.90 MiB (0%)
Language : Arabic
Default : No
Forced : No

Text #4
ID : 6
Format : VobSub
Muxing mode : zlib
Codec ID : S_VOBSUB
Duration : 1 h 48 min
Bit rate : 6 566 b/s
Count of elements : 1205
Stream size : 5.11 MiB (0%)
Language : Bulgarian
Default : No
Forced : No

Text #5
ID : 7
Format : VobSub
Muxing mode : zlib
Codec ID : S_VOBSUB
Duration : 1 h 48 min
Bit rate : 7 197 b/s
Count of elements : 1265
Stream size : 5.60 MiB (0%)
Language : Croatian
Default : No
Forced : No

Text #6
ID : 8
Format : VobSub
Muxing mode : zlib
Codec ID : S_VOBSUB
Duration : 1 h 48 min
Bit rate : 7 856 b/s
Count of elements : 1411
Stream size : 6.11 MiB (0%)
Language : Czech
Default : No
Forced : No

Text #7
ID : 9
Format : VobSub
Muxing mode : zlib
Codec ID : S_VOBSUB
Duration : 1 h 48 min
Bit rate : 9 015 b/s
Count of elements : 1412
Stream size : 7.01 MiB (0%)
Language : Estonian
Default : No
Forced : No

Text #8
ID : 10
Format : VobSub
Muxing mode : zlib
Codec ID : S_VOBSUB
Duration : 1 h 48 min
Bit rate : 7 305 b/s
Count of elements : 1232
Stream size : 5.68 MiB (0%)
Language : Greek
Default : No
Forced : No

Text #9
ID : 11
Format : VobSub
Muxing mode : zlib
Codec ID : S_VOBSUB
Duration : 1 h 48 min
Bit rate : 5 259 b/s
Count of elements : 1087
Stream size : 4.09 MiB (0%)
Language : Hungarian
Default : No
Forced : No

Text #10
ID : 12
Format : VobSub
Muxing mode : zlib
Codec ID : S_VOBSUB
Duration : 1 h 48 min
Bit rate : 6 965 b/s
Count of elements : 1241
Stream size : 5.42 MiB (0%)
Language : Icelandic
Default : No
Forced : No

Text #11
ID : 13
Format : VobSub
Muxing mode : zlib
Codec ID : S_VOBSUB
Duration : 1 h 48 min
Bit rate : 9 544 b/s
Count of elements : 1416
Stream size : 7.42 MiB (1%)
Language : Latvian
Default : No
Forced : No

Text #12
ID : 14
Format : VobSub
Muxing mode : zlib
Codec ID : S_VOBSUB
Duration : 1 h 48 min
Bit rate : 8 784 b/s
Count of elements : 1417
Stream size : 6.83 MiB (0%)
Language : Lithuanian
Default : No
Forced : No

Text #13
ID : 15
Format : VobSub
Muxing mode : zlib
Codec ID : S_VOBSUB
Duration : 1 h 48 min
Bit rate : 8 385 b/s
Count of elements : 1413
Stream size : 6.52 MiB (0%)
Language : Polish
Default : No
Forced : No

Text #14
ID : 16
Format : VobSub
Muxing mode : zlib
Codec ID : S_VOBSUB
Duration : 1 h 48 min
Bit rate : 6 872 b/s
Count of elements : 1247
Stream size : 5.34 MiB (0%)
Language : Portuguese
Default : No
Forced : No

Text #15
ID : 17
Format : VobSub
Muxing mode : zlib
Codec ID : S_VOBSUB
Duration : 1 h 48 min
Bit rate : 6 973 b/s
Count of elements : 1240
Stream size : 5.42 MiB (0%)
Language : Romanian
Default : No
Forced : No

Text #16
ID : 18
Format : VobSub
Muxing mode : zlib
Codec ID : S_VOBSUB
Duration : 1 h 48 min
Bit rate : 6 752 b/s
Count of elements : 1232
Stream size : 5.25 MiB (0%)
Language : Serbian
Default : No
Forced : No

Text #17
ID : 19
Format : VobSub
Muxing mode : zlib
Codec ID : S_VOBSUB
Duration : 1 h 48 min
Bit rate : 8 826 b/s
Count of elements : 1416
Stream size : 6.86 MiB (0%)
Language : Slovak
Default : No
Forced : No

Text #18
ID : 20
Format : VobSub
Muxing mode : zlib
Codec ID : S_VOBSUB
Duration : 1 h 48 min
Bit rate : 6 552 b/s
Count of elements : 1251
Stream size : 5.09 MiB (0%)
Language : Slovenian
Default : No
Forced : No

Text #19
ID : 21
Format : VobSub
Muxing mode : zlib
Codec ID : S_VOBSUB
Duration : 1 h 48 min
Bit rate : 6 866 b/s
Count of elements : 1205
Stream size : 5.34 MiB (0%)
Language : Turkish
Default : No
Forced : No

Text #20
ID : 22
Format : VobSub
Muxing mode : zlib
Codec ID : S_VOBSUB
Duration : 1 h 49 min
Bit rate : 21.9 kb/s
Count of elements : 2119
Stream size : 17.1 MiB (1%)
Language : English
Default : No
Forced : No

[collapse]
Download Link(s)

Part01 Part02

Direct download files get automatically deleted after a month or so. Posted on: 07/21/2019

[collapse]
Magnet Link

Magnet

Top-Gun-1986-Special-Collectors-Edition-1080p-BluRay-x265-HEVC-10bit-AAC-6-1-Joy-UTR1.4 GB

[collapse]

Media information

General
Format : Matroska
Format version : Version 4 / Version 2
File size : 766 MiB
Duration : 1 h 49 min
Overall bit rate : 977 kb/s
Movie name : Top.Gun.Special.Collector’s.Edition.720p.BluRay.2CH.x265.HEVC
Encoded date : UTC 2018-04-20 18:56:16 / UTC 2018-04-20T06:45:17Z
Writing application : mkvmerge v22.0.0 (‘At The End Of The World’) 32-bit
Writing library : libebml v1.3.5 + libmatroska v1.4.8 / Lavf57.7.2

Video
ID : 1
Format : HEVC
Format/Info : High Efficiency Video Coding
Format profile : [email protected]@Main
Codec ID : V_MPEGH/ISO/HEVC
Duration : 1 h 49 min
Width : 1 280 pixels
Height : 720 pixels
Display aspect ratio : 2.40:1
Frame rate mode : Constant
Frame rate : 23.976 (24000/1001) FPS
Color space : YUV
Chroma subsampling : 4:2:0
Bit depth : 8 bits
Default : Yes
Forced : No
Color range : Limited
Color primaries : BT.709
Transfer characteristics : BT.709
Matrix coefficients : BT.709
FromStats_BitRate : 850522

Audio
ID : 2
Format : Opus
Codec ID : A_OPUS
Duration : 1 h 49 min
Channel(s) : 2 channels
Channel positions : Front: L R
Sampling rate : 48.0 kHz
Compression mode : Lossy
Delay relative to video : 3 ms
Title : Stereo
Language : English
Default : Yes
Forced : No

Text
ID : 3
Format : UTF-8
Codec ID : S_TEXT/UTF8
Codec ID/Info : UTF-8 Plain Text
Default : Yes
Forced : No

[collapse]
Download Link(s)

Download

[RE-UP]-Direct download files get automatically deleted after a month or so. Posted on: 07/21/2019

[collapse]
Magnet Link

Magnet

Top-Gun-1986-Special-Collectors-Edition-1080p-BluRay-x265-HEVC-10bit-AAC-6-1-Joy-UTR1.4 GB

[collapse]

You may also like...

error: nah :p~