Transporter 2 (2005)

PG-13 | 1h 27min | Action, Crime, Thriller | 2 September 2005 (USA)

Mercenary Frank Martin, who specializes moving goods of all kinds, surfaces again this time in Miami, Florida when he’s implicated in the kidnapping of the young son of a powerful USA official.

Watch trailer

Media information

General
Format : Matroska
Format version : Version 4
File size : 550 MiB
Duration : 1 h 28 min
Overall bit rate : 873 kb/s
Movie name : Transporter.2.2005.720p.BluRay.2CH.x265.HEVC
Encoded date : UTC 2019-04-21 19:02:58
Writing application : mkvmerge v33.1.0 (‘Primrose’) 32-bit
Writing library : libebml v1.3.7 + libmatroska v1.5.0

Video
ID : 1
Format : HEVC
Format/Info : High Efficiency Video Coding
Format profile : [email protected]@Main
Codec ID : V_MPEGH/ISO/HEVC
Duration : 1 h 28 min
Bit rate : 807 kb/s
Width : 1 280 pixels
Height : 544 pixels
Display aspect ratio : 2.35:1
Original display aspect ratio : 2.35:1
Frame rate mode : Constant
Frame rate : 24.000 FPS
Color space : YUV
Chroma subsampling : 4:2:0
Bit depth : 8 bits
Bits/(Pixel*Frame) : 0.048
Stream size : 509 MiB (92%)
Default : Yes
Forced : No
Color range : Limited
Color primaries : BT.709
Transfer characteristics : BT.709
Matrix coefficients : BT.709

Audio
ID : 2
Format : AAC LC SBR
Commercial name : HE-AAC
Format settings : Explicit
Codec ID : A_AAC-2
Duration : 1 h 28 min
Bit rate : 64.0 kb/s
Channel(s) : 2 channels
Channel layout : L R
Sampling rate : 48.0 kHz
Frame rate : 23.438 FPS (2048 SPF)
Compression mode : Lossy
Delay relative to video : -4 ms
Stream size : 40.3 MiB (7%)
Language : English
Default : Yes
Forced : No

Text
ID : 3
Format : UTF-8
Codec ID : S_TEXT/UTF8
Codec ID/Info : UTF-8 Plain Text
Duration : 1 h 19 min
Bit rate : 43 b/s
Count of elements : 651
Stream size : 25.1 KiB (0%)
Language : English
Default : Yes
Forced : No

[collapse]
Download Link(s)

Download

Direct download files get automatically deleted after a month or so. Posted on : 04/22/2019

[collapse]
Magnet Link

Magnet

Transporter.2.2005.1080p.BluRay.x264-SECTOR7-8.03 GB

[collapse]

You may also like...

error: nah :p~