Upside-Down Magic (2020)

TV-G | 1h 36min | Family, Fantasy | TV Movie 14 August 2020

In “Upside-Down Magic, a Disney Channel Original Movie, 13-year-old Nory Boxwood Horace discovers she can flux into animals, and her best friend Reina Carvajal can manipulate flames. Together, they enter the Sage Academy for Magical Studies. Reina’s expert ability to harness the power of fire lands her at the top of her class of “Flares,” but Nory’s wonky magic and proclivity for turning into a “Dritten”-a half-kitten, half-dragon-lands her in a class for those with Upside-Down Magic, otherwise known as UDM. While Headmaster Knightslinger believes the UDM’s unconventional powers leave them vulnerable to dangerous and evil “shadow magic,” Nory and her fellow UDM classmates set out to prove that Upside-Down Magic beats right side up.

Watch trailer

Media information

General
Format : Matroska
Format version : Version 4
File size : 1.58 GiB
Duration : 1 h 35 min
Overall bit rate : 2 360 kb/s
Movie name : Upside-Down.Magic.2020.1080p.10bit.WEBRip.6CH.x265.HEVC

Video
ID : 1
Format : HEVC
Format/Info : High Efficiency Video Coding
Format profile : Main [email protected]@Main
Codec ID : V_MPEGH/ISO/HEVC
Duration : 1 h 35 min
Bit rate : 2 152 kb/s
Width : 1 920 pixels
Height : 1 080 pixels
Display aspect ratio : 16:9
Frame rate mode : Constant
Frame rate : 23.976 (24000/1001) FPS
Color space : YUV
Chroma subsampling : 4:2:0
Bit depth : 10 bits
Bits/(Pixel*Frame) : 0.043
Stream size : 1.44 GiB (91%)
Default : Yes
Forced : No

Audio
ID : 2
Format : AAC LC SBR
Commercial name : HE-AAC
Format settings : Explicit
Codec ID : A_AAC-2
Duration : 1 h 35 min
Bit rate : 206 kb/s
Channel(s) : 6 channels
Channel layout : C L R Ls Rs LFE
Sampling rate : 48.0 kHz
Frame rate : 23.438 FPS (2048 SPF)
Compression mode : Lossy
Delay relative to video : 23 ms
Stream size : 141 MiB (9%)
Language : English
Default : Yes
Forced : No

Text
ID : 3
Format : UTF-8
Codec ID : S_TEXT/UTF8
Codec ID/Info : UTF-8 Plain Text
Duration : 1 h 35 min
Bit rate : 56 b/s
Count of elements : 1115
Stream size : 39.5 KiB (0%)
Language : English
Default : Yes
Forced : No

[collapse]
Download Link(s)

Download

Direct download files get automatically deleted after a month or so. Posted on : 08/03/2020

[collapse]
Magnet Link

Magnet

Upside-Down.Magic.2020.1080p.WEBRip.DD5.1.x264-CM- 3.69 GB

[collapse]

Media information

General
Format : Matroska
Format version : Version 4
File size : 859 MiB
Duration : 1 h 35 min
Overall bit rate : 1 251 kb/s
Movie name : Upside-Down.Magic.2020.720p.10bit.WEBRip.6CH.x265.HEVC

Video
ID : 1
Format : HEVC
Format/Info : High Efficiency Video Coding
Format profile : Main [email protected]@Main
Codec ID : V_MPEGH/ISO/HEVC
Duration : 1 h 35 min
Bit rate : 1 043 kb/s
Width : 1 280 pixels
Height : 720 pixels
Display aspect ratio : 16:9
Frame rate mode : Constant
Frame rate : 23.976 (24000/1001) FPS
Color space : YUV
Chroma subsampling : 4:2:0
Bit depth : 10 bits
Bits/(Pixel*Frame) : 0.047
Stream size : 716 MiB (83%)
Default : Yes
Forced : No

Audio
ID : 2
Format : AAC LC SBR
Commercial name : HE-AAC
Format settings : Explicit
Codec ID : A_AAC-2
Duration : 1 h 35 min
Bit rate : 206 kb/s
Channel(s) : 6 channels
Channel layout : C L R Ls Rs LFE
Sampling rate : 48.0 kHz
Frame rate : 23.438 FPS (2048 SPF)
Compression mode : Lossy
Delay relative to video : 23 ms
Stream size : 141 MiB (16%)
Language : English
Default : Yes
Forced : No

Text
ID : 3
Format : UTF-8
Codec ID : S_TEXT/UTF8
Codec ID/Info : UTF-8 Plain Text
Duration : 1 h 35 min
Bit rate : 56 b/s
Count of elements : 1115
Stream size : 39.5 KiB (0%)
Language : English
Default : Yes
Forced : No

[collapse]
Download Link(s)

Download

Direct download files get automatically deleted after a month or so. Posted on : 08/03/2020

[collapse]
Magnet Link

Magnet

Upside-Down.Magic.2020.1080p.WEBRip.DD5.1.x264-CM- 3.69 GB

[collapse]

You may also like...

error: nah :p~