Urban Legend (1998)

R | 1h 39min | Horror, Mystery, Thriller | 25 September 1998 (USA)

A college student suspects a series of bizarre deaths are connected to certain urban legends.

Watch trailer

Media information

General
Format : Matroska
Format version : Version 4
File size : 1.45 GiB
Duration : 1 h 39 min
Overall bit rate : 2 077 kb/s
Movie name : Urban.Legend.1998.1080p.10bit.BluRay.6CH.x265.HEVC

Video
ID : 1
Format : HEVC
Format/Info : High Efficiency Video Coding
Format profile : Main [email protected]@Main
Codec ID : V_MPEGH/ISO/HEVC
Duration : 1 h 39 min
Bit rate : 1 850 kb/s
Width : 1 920 pixels
Height : 800 pixels
Display aspect ratio : 2.40:1
Frame rate mode : Constant
Frame rate : 23.976 (24000/1001) FPS
Color space : YUV
Chroma subsampling : 4:2:0
Bit depth : 10 bits
Bits/(Pixel*Frame) : 0.050
Stream size : 1.29 GiB (89%)
Default : Yes
Forced : No
Color range : Limited
Color primaries : BT.709
Transfer characteristics : BT.709
Matrix coefficients : BT.709

Audio
ID : 2
Format : AAC LC
Codec ID : A_AAC-2
Duration : 1 h 39 min
Bit rate : 224 kb/s
Channel(s) : 6 channels
Channel layout : C L R Ls Rs LFE
Sampling rate : 48.0 kHz
Frame rate : 46.875 FPS (1024 SPF)
Compression mode : Lossy
Delay relative to video : -21 ms
Stream size : 160 MiB (11%)
Language : English
Default : Yes
Forced : No

Text
ID : 3
Format : UTF-8
Codec ID : S_TEXT/UTF8
Codec ID/Info : UTF-8 Plain Text
Duration : 1 h 34 min
Bit rate : 45 b/s
Count of elements : 990
Stream size : 31.3 KiB (0%)
Language : English
Default : Yes
Forced : No

[collapse]
Download Link(s)

Download

Direct download files get automatically deleted after a month or so. Posted on : 08/04/2020

[collapse]
Magnet Link

Magnet

Urban-Legend-1998-1080p-10bit-Bluray-x265-HEVC-Org-DD-5-1-Hindi-DD-5-1-English-MSubs-TombDoc-3.4 GB

[collapse]

Media information

General
Format : Matroska
Format version : Version 4
File size : 732 MiB
Duration : 1 h 39 min
Overall bit rate : 1 027 kb/s
Movie name : Urban.Legend.1998.720p.10bit.BluRay.6CH.x265.HEVC

Video
ID : 1
Format : HEVC
Format/Info : High Efficiency Video Coding
Format profile : Main [email protected]@Main
Codec ID : V_MPEGH/ISO/HEVC
Duration : 1 h 39 min
Bit rate : 801 kb/s
Width : 1 280 pixels
Height : 534 pixels
Display aspect ratio : 2.40:1
Frame rate mode : Constant
Frame rate : 23.976 (24000/1001) FPS
Color space : YUV
Chroma subsampling : 4:2:0
Bit depth : 10 bits
Bits/(Pixel*Frame) : 0.049
Stream size : 571 MiB (78%)
Default : Yes
Forced : No
Color range : Limited
Color primaries : BT.709
Transfer characteristics : BT.709
Matrix coefficients : BT.709

Audio
ID : 2
Format : AAC LC
Codec ID : A_AAC-2
Duration : 1 h 39 min
Bit rate : 224 kb/s
Channel(s) : 6 channels
Channel layout : C L R Ls Rs LFE
Sampling rate : 48.0 kHz
Frame rate : 46.875 FPS (1024 SPF)
Compression mode : Lossy
Delay relative to video : -21 ms
Stream size : 160 MiB (22%)
Language : English
Default : Yes
Forced : No

Text
ID : 3
Format : UTF-8
Codec ID : S_TEXT/UTF8
Codec ID/Info : UTF-8 Plain Text
Duration : 1 h 34 min
Bit rate : 45 b/s
Count of elements : 990
Stream size : 31.3 KiB (0%)
Language : English
Default : Yes
Forced : No

[collapse]
Download Link(s)

Download

Direct download files get automatically deleted after a month or so. Posted on : 08/04/2020

[collapse]
Magnet Link

Magnet

Urban-Legend-1998-1080p-10bit-Bluray-x265-HEVC-Org-DD-5-1-Hindi-DD-5-1-English-MSubs-TombDoc-3.4 GB

[collapse]

You may also like...

error: nah :p~