Urban Legends: Final Cut (2000)

R | 1h 37min | Horror, Mystery, Thriller | 22 September 2000 (USA)

A film school is the center of a fresh spate of killings based on urban legends.

Watch trailer

Media information

General
Format : Matroska
Format version : Version 4
File size : 1.49 GiB
Duration : 1 h 38 min
Overall bit rate : 2 173 kb/s
Movie name : Urban.Legends.Final.Cut.2000.1080p.10bit.BluRay.6CH.x265.HEVC

Video
ID : 1
Format : HEVC
Format/Info : High Efficiency Video Coding
Format profile : Main [email protected]@Main
Codec ID : V_MPEGH/ISO/HEVC
Duration : 1 h 38 min
Bit rate : 1 850 kb/s
Width : 1 920 pixels
Height : 800 pixels
Display aspect ratio : 2.40:1
Frame rate mode : Constant
Frame rate : 23.976 (24000/1001) FPS
Color space : YUV
Chroma subsampling : 4:2:0
Bit depth : 10 bits
Bits/(Pixel*Frame) : 0.050
Stream size : 1.27 GiB (85%)
Default : Yes
Forced : No
Color range : Limited
Color primaries : BT.709
Transfer characteristics : BT.709
Matrix coefficients : BT.709

Audio
ID : 2
Format : AAC LC
Codec ID : A_AAC-2
Duration : 1 h 38 min
Bit rate : 320 kb/s
Channel(s) : 6 channels
Channel layout : C L R Ls Rs LFE
Sampling rate : 48.0 kHz
Frame rate : 46.875 FPS (1024 SPF)
Compression mode : Lossy
Delay relative to video : -21 ms
Stream size : 225 MiB (15%)
Language : English
Default : Yes
Forced : No

Text
ID : 3
Format : UTF-8
Codec ID : S_TEXT/UTF8
Codec ID/Info : UTF-8 Plain Text
Duration : 1 h 32 min
Bit rate : 41 b/s
Count of elements : 883
Stream size : 28.3 KiB (0%)
Language : English
Default : Yes
Forced : No

[collapse]
Download Link(s)

Download

Direct download files get automatically deleted after a month or so. Posted on : 08/04/2020

[collapse]
Magnet Link

Magnet

Urban.Legends.Final.Cut.2000.1080p.BluRay.x264-PSYCHD- 8.74 GB

[collapse]

Media information

General
Format : Matroska
Format version : Version 4
File size : 758 MiB
Duration : 1 h 38 min
Overall bit rate : 1 077 kb/s
Movie name : Urban.Legends.Final.Cut.2000.720p.10bit.BluRay.6CH.x265.HEVC

Video
ID : 1
Format : HEVC
Format/Info : High Efficiency Video Coding
Format profile : Main [email protected]@Main
Codec ID : V_MPEGH/ISO/HEVC
Duration : 1 h 38 min
Bit rate : 851 kb/s
Width : 1 280 pixels
Height : 534 pixels
Display aspect ratio : 2.40:1
Frame rate mode : Constant
Frame rate : 23.976 (24000/1001) FPS
Color space : YUV
Chroma subsampling : 4:2:0
Bit depth : 10 bits
Bits/(Pixel*Frame) : 0.052
Stream size : 599 MiB (79%)
Default : Yes
Forced : No
Color range : Limited
Color primaries : BT.709
Transfer characteristics : BT.709
Matrix coefficients : BT.709

Audio
ID : 2
Format : AAC LC
Codec ID : A_AAC-2
Duration : 1 h 38 min
Bit rate : 224 kb/s
Channel(s) : 6 channels
Channel layout : C L R Ls Rs LFE
Sampling rate : 48.0 kHz
Frame rate : 46.875 FPS (1024 SPF)
Compression mode : Lossy
Delay relative to video : -21 ms
Stream size : 158 MiB (21%)
Language : English
Default : Yes
Forced : No

Text
ID : 3
Format : UTF-8
Codec ID : S_TEXT/UTF8
Codec ID/Info : UTF-8 Plain Text
Duration : 1 h 32 min
Bit rate : 41 b/s
Count of elements : 883
Stream size : 28.3 KiB (0%)
Language : English
Default : Yes
Forced : No

[collapse]
Download Link(s)

Download

Direct download files get automatically deleted after a month or so. Posted on : 08/04/2020

[collapse]
Magnet Link

Magnet

Urban.Legends.Final.Cut.2000.1080p.BluRay.x264-PSYCHD- 8.74 GB

[collapse]

You may also like...

error: nah :p~