Valerian and the City of a Thousand Planets (2017)

PG-13 | 2h 17min | Action, Adventure, Fantasy | 21 July 2017 (USA)

A dark force threatens Alpha, a vast metropolis and home to species from a thousand planets. Special operatives Valerian and Laureline must race to identify the marauding menace and safeguard not just Alpha, but the future of the universe.

Watch trailer

Media information

General
Format : Matroska
Format version : Version 4
File size : 1.15 GiB
Duration : 2 h 17 min
Overall bit rate : 1 199 kb/s
Movie name : Valerian.and.the.City.of.a.Thousand.Planets.2017.720p.10bit.BluRay.6CH.x265.HEVC
Encoded date : UTC 2019-09-15 18:58:19
Writing application : mkvmerge v37.0.0 (‘Leave It’) 32-bit
Writing library : libebml v1.3.9 + libmatroska v1.5.2

Video
ID : 1
Format : HEVC
Format/Info : High Efficiency Video Coding
Format profile : Main [email protected]@Main
Codec ID : V_MPEGH/ISO/HEVC
Duration : 2 h 17 min
Bit rate : 974 kb/s
Width : 1 280 pixels
Height : 536 pixels
Display aspect ratio : 2.40:1
Frame rate mode : Constant
Frame rate : 23.976 (24000/1001) FPS
Color space : YUV
Chroma subsampling : 4:2:0
Bit depth : 10 bits
Bits/(Pixel*Frame) : 0.059
Stream size : 955 MiB (81%)
Default : Yes
Forced : No

Audio
ID : 2
Format : AAC LC SBR
Commercial name : HE-AAC
Format settings : Explicit
Codec ID : A_AAC-2
Duration : 2 h 17 min
Bit rate : 222 kb/s
Channel(s) : 6 channels
Channel layout : C L R Ls Rs LFE
Sampling rate : 48.0 kHz
Frame rate : 23.438 FPS (2048 SPF)
Compression mode : Lossy
Delay relative to video : 31 ms
Stream size : 218 MiB (19%)
Language : English
Default : Yes
Forced : No

Text
ID : 3
Format : UTF-8
Codec ID : S_TEXT/UTF8
Codec ID/Info : UTF-8 Plain Text
Duration : 2 h 13 min
Bit rate : 57 b/s
Count of elements : 1631
Stream size : 56.3 KiB (0%)
Language : English
Default : Yes
Forced : No

[collapse]
Download Link(s)

Download

Direct download files get automatically deleted after a month or so. Posted on : 09/15/2019

[collapse]
Magnet Link

Magnet

Valerian.and.the.City.of.a.Thousand.Planets.2017.2160p.BluRay.x265.10bit.SDR.DTS-HD.MA.TrueHD.7.1.Atmos-SWTYBLZ-30.81 GB

[collapse]

You may also like...

error: nah :p~