Victoria Secret Fashion Show 2018

Official Homepage

Holiday Special New York 2018

Media information

General
Format : Matroska
Format version : Version 4
File size : 1.10 GiB
Duration : 40 min 59 s
Overall bit rate : 3 841 kb/s
Movie name : The.Victorias.Secret.Fashion.Show.2018.1080p.WEBRip.6CH.x265.HEVC
Encoded date : UTC 2018-12-05 17:42:12
Writing application : mkvmerge v29.0.0 (‘Like It Or Not’) 32-bit
Writing library : libebml v1.3.6 + libmatroska v1.4.9

Video
ID : 1
Format : HEVC
Format/Info : High Efficiency Video Coding
Format profile : [email protected]@Main
Codec ID : V_MPEGH/ISO/HEVC
Duration : 40 min 59 s
Bit rate : 3 739 kb/s
Width : 1 920 pixels
Height : 1 080 pixels
Display aspect ratio : 16:9
Frame rate mode : Constant
Frame rate : 29.970 (30000/1001) FPS
Color space : YUV
Chroma subsampling : 4:2:0
Bit depth : 8 bits
Bits/(Pixel*Frame) : 0.060
Stream size : 1.07 GiB (97%)
Default : Yes
Forced : No

Audio
ID : 2
Format : AAC LC SBR
Commercial name : HE-AAC
Format settings : Explicit
Codec ID : A_AAC-2
Duration : 40 min 58 s
Bit rate : 98.7 kb/s
Channel(s) : 6 channels
Channel layout : C L R Ls Rs LFE
Sampling rate : 48.0 kHz
Frame rate : 23.438 FPS (2048 SPF)
Compression mode : Lossy
Delay relative to video : 23 ms
Stream size : 28.9 MiB (3%)
Language : English
Default : Yes
Forced : No

[collapse]
Download Link(s)

Part01 Part02

Direct download files get automatically deleted after a month or so. Posted on : 12/05/2018

[collapse]
Magnet Link

Magnet

The.Victorias.Secret.Fashion.Show.2018.1080p.AMZN.WEBRip.DDP5.1.x264-NTb-4.06 GB

[collapse]

Media information

General
Format : Matroska
Format version : Version 4
File size : 544 MiB
Duration : 40 min 59 s
Overall bit rate : 1 855 kb/s
Movie name : The.Victorias.Secret.Fashion.Show.2018.720p.WEBRip.2CH.x265.HEVC
Encoded date : UTC 2018-12-04 13:01:44
Writing application : mkvmerge v29.0.0 (‘Like It Or Not’) 32-bit
Writing library : libebml v1.3.6 + libmatroska v1.4.9

Video
ID : 1
Format : HEVC
Format/Info : High Efficiency Video Coding
Format profile : [email protected]@Main
Codec ID : V_MPEGH/ISO/HEVC
Duration : 40 min 59 s
Bit rate : 1 804 kb/s
Width : 1 280 pixels
Height : 720 pixels
Display aspect ratio : 16:9
Frame rate mode : Constant
Frame rate : 29.970 (30000/1001) FPS
Color space : YUV
Chroma subsampling : 4:2:0
Bit depth : 8 bits
Bits/(Pixel*Frame) : 0.065
Stream size : 529 MiB (97%)
Default : Yes
Forced : No

Audio
ID : 2
Format : AAC LC SBR
Commercial name : HE-AAC
Format settings : Explicit
Codec ID : A_AAC-2
Duration : 40 min 58 s
Bit rate : 48.0 kb/s
Channel(s) : 2 channels
Channel layout : L R
Sampling rate : 48.0 kHz
Frame rate : 23.438 FPS (2048 SPF)
Compression mode : Lossy
Delay relative to video : 23 ms
Stream size : 14.3 MiB (3%)
Language : English
Default : Yes
Forced : No

[collapse]
Download Link(s)

Download

Direct download files get automatically deleted after a month or so. Posted on : 12/04/2018

[collapse]
Magnet Link

Magnet

The.Victorias.Secret.Fashion.Show.2018.1080p.AMZN.WEBRip.DDP5.1.x264-NTb-4.06 GB

[collapse]

Media information

General
Format : Matroska
Format version : Version 4
File size : 276 MiB
Duration : 42 min 2 s
Overall bit rate : 917 kb/s
Movie name : The.Victorias.Secret.Fashion.Show.Holiday.Special.2018.720p.WEB-DL.2CH.x265.HEVC
Encoded date : UTC 2018-12-04 05:12:59
Writing application : mkvmerge v29.0.0 (‘Like It Or Not’) 32-bit
Writing library : libebml v1.3.6 + libmatroska v1.4.9

Video
ID : 1
Format : HEVC
Format/Info : High Efficiency Video Coding
Format profile : [email protected]@Main
Codec ID : V_MPEGH/ISO/HEVC
Duration : 42 min 2 s
Bit rate : 851 kb/s
Width : 1 280 pixels
Height : 720 pixels
Display aspect ratio : 16:9
Frame rate mode : Constant
Frame rate : 29.970 (30000/1001) FPS
Color space : YUV
Chroma subsampling : 4:2:0
Bit depth : 8 bits
Bits/(Pixel*Frame) : 0.031
Stream size : 256 MiB (93%)
Default : Yes
Forced : No
Color range : Limited
Color primaries : BT.709
Transfer characteristics : BT.709
Matrix coefficients : BT.709

Audio
ID : 2
Format : AAC LC SBR
Commercial name : HE-AAC
Format settings : Explicit
Codec ID : A_AAC-2
Duration : 42 min 2 s
Bit rate : 64.0 kb/s
Channel(s) : 2 channels
Channel layout : L R
Sampling rate : 48.0 kHz
Frame rate : 23.438 FPS (2048 SPF)
Compression mode : Lossy
Delay relative to video : -7 ms
Stream size : 19.2 MiB (7%)
Default : Yes
Forced : No

[collapse]
Download Link(s)

Download

Direct download files get automatically deleted after a month or so. Posted on : 12/04/2018

[collapse]
Magnet Link

Magnet

The.Victorias.Secret.Fashion.Show.2018.1080p.AMZN.WEBRip.DDP5.1.x264-NTb-4.06 GB

[collapse]

You may also like...

error: nah :p~