Vikram Vedha (2017)

Not Rated | 2h 27min | Action, Crime, Thriller | 21 July 2017 (India)

Vikram, a no-nonsense police officer, accompanied by Simon, his partner, is on the hunt to capture Vedha, a smuggler and a murderer. Vedha tries to change Vikram’s life, which leads to a conflict.

Watch trailer

Media information

General
Format : Matroska
Format version : Version 4
File size : 666 MiB
Duration : 2 h 19 min
Overall bit rate : 665 kb/s
Movie name : Vikram.Vedha.2017.720p.WEB-DL.2CH.x265.HEVC
Encoded date : UTC 2019-02-10 13:03:41
Writing application : mkvmerge v31.0.0 (‘Dolores In A Shoestand’) 32-bit
Writing library : libebml v1.3.6 + libmatroska v1.4.9

Video
ID : 1
Format : HEVC
Format/Info : High Efficiency Video Coding
Format profile : [email protected]@Main
Codec ID : V_MPEGH/ISO/HEVC
Duration : 2 h 19 min
Bit rate : 599 kb/s
Width : 1 280 pixels
Height : 720 pixels
Display aspect ratio : 2.35:1
Frame rate mode : Constant
Frame rate : 25.000 FPS
Color space : YUV
Chroma subsampling : 4:2:0
Bit depth : 8 bits
Bits/(Pixel*Frame) : 0.026
Stream size : 599 MiB (90%)
Default : Yes
Forced : No
Color range : Limited
Color primaries : BT.709
Transfer characteristics : BT.709
Matrix coefficients : BT.709

Audio
ID : 2
Format : AAC LC
Codec ID : A_AAC-2
Duration : 2 h 19 min
Bit rate : 64.2 kb/s
Channel(s) : 2 channels
Channel layout : L R
Sampling rate : 48.0 kHz
Frame rate : 46.875 FPS (1024 SPF)
Compression mode : Lossy
Delay relative to video : -101 ms
Stream size : 64.3 MiB (10%)
Title : Stereo
Language : Tamil
Default : Yes
Forced : No

Text
ID : 3
Format : ASS
Codec ID : S_TEXT/ASS
Codec ID/Info : Advanced Sub Station Alpha
Duration : 2 h 17 min
Bit rate : 106 b/s
Count of elements : 1700
Compression mode : Lossless
Stream size : 108 KiB (0%)
Language : English
Default : Yes
Forced : Yes

[collapse]
Download Link(s)

Download

Direct download files get automatically deleted after a month or so. Posted on : 02/10/2019

[collapse]
Magnet Link

Magnet

Vikram.Vedha .2017.1080p.WebDL.AVC.AAC.5.1-ESub-4.3 GB

[collapse]

You may also like...

error: nah :p~