Waiting for the Miracle to Come (2018)

Unrated | 1h 15min | Drama, Fantasy | 29 April 2019 (USA)

An aspiring trapeze artist discovers a cryptic letter her recently deceased father once wrote directing her to a gold mine in a remote California desert. Upon arriving in a mysterious town, she finds herself at the gates of “The Beautiful Place,” a house occupied by retired vaudeville stars Jimmy and Dixie Riggs. As she gets to know the eccentric couple, she discovers her words were directing her to a reward far more valuable than gold.

Watch trailer

Media information

General
Format : Matroska
Format version : Version 4
File size : 650 MiB
Duration : 1 h 15 min
Overall bit rate : 1 212 kb/s
Movie name : Waiting.For.The.Miracle.To.Come.2018.720p.WEB-DL.2CH.x264.AVC
Encoded date : UTC 2019-04-29 21:12:03
Writing application : mkvmerge v33.1.0 (‘Primrose’) 32-bit
Writing library : libebml v1.3.7 + libmatroska v1.5.0

Video
ID : 1
Format : AVC
Format/Info : Advanced Video Codec
Format profile : [email protected]
Format settings : CABAC / 5 Ref Frames
Format settings, CABAC : Yes
Format settings, Reference frames : 5 frames
Codec ID : V_MPEG4/ISO/AVC
Duration : 1 h 15 min
Bit rate : 1 146 kb/s
Width : 1 280 pixels
Height : 718 pixels
Display aspect ratio : 16:9
Frame rate mode : Constant
Frame rate : 23.976 (24000/1001) FPS
Color space : YUV
Chroma subsampling : 4:2:0
Bit depth : 8 bits
Scan type : Progressive
Bits/(Pixel*Frame) : 0.052
Stream size : 615 MiB (95%)
Default : Yes
Forced : No

Audio
ID : 2
Format : AAC LC SBR
Commercial name : HE-AAC
Format settings : Explicit
Codec ID : A_AAC-2
Duration : 1 h 15 min
Bit rate : 64.0 kb/s
Channel(s) : 2 channels
Channel layout : L R
Sampling rate : 48.0 kHz
Frame rate : 23.438 FPS (2048 SPF)
Compression mode : Lossy
Delay relative to video : 1 ms
Stream size : 34.3 MiB (5%)
Language : English
Default : Yes
Forced : No

Text
ID : 3
Format : UTF-8
Codec ID : S_TEXT/UTF8
Codec ID/Info : UTF-8 Plain Text
Duration : 1 h 13 min
Bit rate : 45 b/s
Count of elements : 606
Stream size : 24.5 KiB (0%)
Language : English
Default : Yes
Forced : No

[collapse]
Download Link(s)

Download

Direct download files get automatically deleted after a month or so. Posted on : 04/30/2019

[collapse]
Magnet Link

Magnet

Waiting.For.The.Miracle.To.Come.2018.1080p.WEB-DL.H264.AC3-EVO-2.9 GB

[collapse]

You may also like...

error: nah :p~