Wanted (2008)

R | 1h 50min | Action, Crime, Fantasy | 27 June 2008 (USA)

A frustrated office worker learns that he is the son of a professional assassin and that he shares his father’s superhuman killing abilities.

Watch trailer

Media information

General
Format : Matroska
Format version : Version 4
File size : 768 MiB
Duration : 1 h 50 min
Overall bit rate : 975 kb/s
Movie name : Wanted.2008.720p.BluRay.2CH.x265.HEVC
Encoded date : UTC 2019-01-07 16:21:28
Writing application : mkvmerge v30.1.0 (‘Forever And More’) 32-bit
Writing library : libebml v1.3.6 + libmatroska v1.4.9

Video
ID : 1
Format : HEVC
Format/Info : High Efficiency Video Coding
Format profile : [email protected]@Main
Codec ID : V_MPEGH/ISO/HEVC
Duration : 1 h 50 min
Bit rate : 893 kb/s
Width : 1 280 pixels
Height : 544 pixels
Display aspect ratio : 2.35:1
Frame rate mode : Constant
Frame rate : 23.976 (24000/1001) FPS
Color space : YUV
Chroma subsampling : 4:2:0
Bit depth : 8 bits
Bits/(Pixel*Frame) : 0.053
Stream size : 702 MiB (92%)
Default : Yes
Forced : No
Color range : Limited
Color primaries : BT.709
Transfer characteristics : BT.709
Matrix coefficients : BT.709

Audio
ID : 2
Format : AAC LC
Codec ID : A_AAC-2
Duration : 1 h 50 min
Bit rate : 80.5 kb/s
Channel(s) : 2 channels
Channel layout : L R
Sampling rate : 48.0 kHz
Frame rate : 46.875 FPS (1024 SPF)
Compression mode : Lossy
Delay relative to video : -64 ms
Stream size : 63.3 MiB (8%)
Title : Stereo
Language : English
Default : Yes
Forced : No

Text
ID : 3
Format : ASS
Codec ID : S_TEXT/ASS
Duration : 1 h 41 min
Bit rate : 67 b/s
Count of elements : 993
Compression mode : Lossless
Stream size : 50.4 KiB (0%)
Language : English
Default : Yes
Forced : Yes

[collapse]
Download Link(s)

Download

Direct download files get automatically deleted after a month or so. Posted on : 01/07/2019

[collapse]
Magnet Link

Magnet

Wanted.2008.BluRay.1080p.x265.10bit-z97-2.4 GB

[collapse]

You may also like...

error: nah :p~